势不两立[中英字幕].The.Edge.1997.BluRay.1080p.x265.10bit-MiniHD 6.70GB

版主小s 1月前 154



◎译  名 势不两立 / 边缘 / 杀与捕
◎片  名 The Edge
◎年  代 1997
◎产  地 美国
◎类  别 剧情 / 动作 / 惊悚 / 冒险
◎语  言 英语
◎上映日期 1997-09-26(美国)
◎IMDb链接 https://www.imdb.com/title/tt0119051/
◎豆瓣评分 7.9/10 (7733人评价)
◎豆瓣链接 https://movie.douban.com/subject/1292898/
◎片  长 117 分钟
◎导  演 李·塔玛霍瑞 Lee Tamahori (id:1018222)
◎编  剧 大卫·马梅 David Mamet (id:1036481)
◎演  员 安东尼·霍普金斯 Anthony Hopkins (id:1054434)
       亚历克·鲍德温 Alec Baldwin (id:1000011)
       艾拉·麦克弗森 Elle Macpherson (id:1000216)
       哈罗德·佩里诺 Harold Perrineau (id:1130099)
       巴特熊 Bart the Bear (id:1206098)
       L·Q·琼斯 L.Q. Jones (id:1025296)
       凯瑟琳·威尔霍特 Kathleen Wilhoite (id:1054573)
       马克·基利 Mark Kiely (id:1321929)
       高登·图托西斯 Gordon Tootoosis (id:1315452)
       布莱恩·斯蒂尔 Brian Steele (id:1052093)
       阿特·林森 Art Linson (id:1290103)
       劳埃德·菲利普斯 Lloyd Phillips (id:1294461)
       杰瑞·高德史密斯 Jerry Goldsmith (id:1007116)
       唐纳德·麦卡尔平 Donald McAlpine (id:1276558)
       尼尔·特拉维斯 Neil Travis (id:1299480)
       Donna Isaacson Donna Isaacson (id:1287387)
       沃尔夫·克罗伊格 Wolf Kroeger (id:1289046)
       贾尼斯·布莱基-古迪恩 Janice Blackie-Goodine (id:1278733)
       朱莉·维斯 Julie Weiss (id:1300651)
       卡尔·富勒顿 Carl Fullerton (id:1284349)
       Iloe Flewelling Iloe Flewelling (id:1283862)
       Gail Kennedy Gail Kennedy (id:1288394)
       克丝缇·碧芙丽绮 Christine Beveridge (id:1278568)
       Kevin Leslie Kevin Leslie (id:1289838)
       Michele Williams Michele Williams (id:1300983)
       Ditch Doy Ditch Doy (id:1282677)
       肯特·休斯顿 Kent Houston (id:1286980)

◎简  介
  查尔斯(安东尼·霍普金斯 Anthony Hopkins 饰)是一个腰缠万贯的百万富翁,对于他来说,金钱、权利和女人不过是生活的基本配置而已。但是,在为查尔斯打工的摄影师罗伯特(亚历克·鲍德温 Alec Baldwin 饰)眼里,老板所拥有的一切,尤其是他年轻的妻子米琪(艾拉·麦克弗森 Elle Macpherson 饰)都让他感到十分眼红,但是,罗伯特不知道的是,敏感又细心的查尔斯早就开始怀疑起了他和米琪之间的清白。                                    
                                在一次工作中,众人乘坐的飞机发生了事故,一行人流落到了阿拉斯加的荒原之上。匮乏的资源,恶劣的天气,凶恶的野生动物,一切的一切都威胁着大家的性命,但最最可怕的,其实是每个人深藏在心底的黑暗面。

◎获奖情况 (共1项)
  第4届中国长春电影节 (1998)
  金鹿奖 最佳外语故事片

  1. ##### MediaInfo ######
  2. General
  3. Unique ID                                : 213783732854027776706801426561848783701 (0xA0D53FD055038611A83256679E573355)
  4. Complete name                            : The.Edge.1997.BluRay.1080p.x265.10bit-MiniHD.mkv
  5. Format                                   : Matroska
  6. Format version                           : Version 4
  7. File size                                : 6.70 GiB
  8. Duration                                 : 1 h 57 min
  9. Overall bit rate                         : 8 161 kb/s
  10. Encoded date                             : UTC 2017-09-26 06:45:05
  11. Writing application                      : mkvmerge v11.0.0 ('Alive') 64bit
  12. Writing library                          : libebml v1.3.4 + libmatroska v1.4.5
  13. Video
  14. ID                                       : 1
  15. Format                                   : HEVC
  16. Format/Info                              : High Efficiency Video Coding
  17. Codec ID                                 : V_MPEGH/ISO/HEVC
  18. Duration                                 : 1 h 57 min
  19. Bit rate                                 : 7 463 kb/s
  20. Width                                    : 1 920 pixels
  21. Height                                   : 816 pixels
  22. Display aspect ratio                     : 2.35:1
  23. Frame rate mode                          : Constant
  24. Frame rate                               : 24.000 FPS
  25. Bits/(Pixel*Frame)                       : 0.198
  26. Stream size                              : 6.13 GiB (91%)
  27. Default                                  : Yes
  28. Forced                                   : No
  29. Audio
  30. ID                                       : 2
  31. Format                                   : AC-3
  32. Format/Info                              : Audio Coding 3
  33. Commercial name                          : Dolby Digital
  34. Codec ID                                 : A_AC3
  35. Duration                                 : 1 h 57 min
  36. Bit rate mode                            : Constant
  37. Bit rate                                 : 640 kb/s
  38. Channel(s)                               : 6 channels
  39. Channel layout                           : L R C LFE Ls Rs
  40. Sampling rate                            : 48.0 kHz
  41. Frame rate                               : 31.250 FPS (1536 SPF)
  42. Compression mode                         : Lossy
  43. Stream size                              : 538 MiB (8%)
  44. Language                                 : English
  45. Service kind                             : Complete Main
  46. Default                                  : Yes
  47. Forced                                   : No
  48. Text #1
  49. ID                                       : 3
  50. Format                                   : PGS
  51. Muxing mode                              : zlib
  52. Codec ID                                 : S_HDMV/PGS
  53. Codec ID/Info                            : Picture based subtitle format used on BDs/HD-DVDs
  54. Duration                                 : 1 h 50 min
  55. Bit rate                                 : 10.7 kb/s
  56. Count of elements                        : 2102
  57. Stream size                              : 8.44 MiB (0%)
  58. Language                                 : English
  59. Default                                  : Yes
  60. Forced                                   : No
  61. Text #2
  62. ID                                       : 4
  63. Format                                   : PGS
  64. Muxing mode                              : zlib
  65. Codec ID                                 : S_HDMV/PGS
  66. Codec ID/Info                            : Picture based subtitle format used on BDs/HD-DVDs
  67. Duration                                 : 1 h 51 min
  68. Bit rate                                 : 11.9 kb/s
  69. Count of elements                        : 2118
  70. Stream size                              : 9.52 MiB (0%)
  71. Language                                 : Chinese
  72. Default                                  : No
  73. Forced                                   : No
  74. Text #3
  75. ID                                       : 5
  76. Format                                   : PGS
  77. Muxing mode                              : zlib
  78. Codec ID                                 : S_HDMV/PGS
  79. Codec ID/Info                            : Picture based subtitle format used on BDs/HD-DVDs
  80. Duration                                 : 1 h 51 min
  81. Bit rate                                 : 12.4 kb/s
  82. Count of elements                        : 2118
  83. Stream size                              : 9.88 MiB (0%)
  84. Language                                 : Chinese
  85. Default                                  : No
  86. Forced                                   : No
  87. Text #4
  88. ID                                       : 6
  89. Format                                   : PGS
  90. Muxing mode                              : zlib
  91. Codec ID                                 : S_HDMV/PGS
  92. Codec ID/Info                            : Picture based subtitle format used on BDs/HD-DVDs
  93. Duration                                 : 1 h 51 min
  94. Bit rate                                 : 11.9 kb/s
  95. Count of elements                        : 2118
  96. Stream size                              : 9.51 MiB (0%)
  97. Language                                 : Chinese
  98. Default                                  : No
  99. Forced                                   : No
  100. Text #5
  101. ID                                       : 7
  102. Format                                   : PGS
  103. Muxing mode                              : zlib
  104. Codec ID                                 : S_HDMV/PGS
  105. Codec ID/Info                            : Picture based subtitle format used on BDs/HD-DVDs
  106. Duration                                 : 1 h 51 min
  107. Bit rate                                 : 12.4 kb/s
  108. Count of elements                        : 2118
  109. Stream size                              : 9.88 MiB (0%)
  110. Language                                 : Chinese
  111. Default                                  : No
  112. Forced                                   : No
  113. Menu
  114. 00:00:00.000                             : en:00:00:00.000
  115. 00:06:14.667                             : en:00:06:14.667
  116. 00:11:25.083                             : en:00:11:25.083
  117. 00:16:50.583                             : en:00:16:50.583
  118. 00:21:37.542                             : en:00:21:37.542
  119. 00:27:42.208                             : en:00:27:42.208
  120. 00:33:19.958                             : en:00:33:19.958
  121. 00:38:02.333                             : en:00:38:02.333
  122. 00:45:53.458                             : en:00:45:53.458
  123. 00:51:54.000                             : en:00:51:54.000
  124. 00:58:06.208                             : en:00:58:06.208
  125. 01:05:34.333                             : en:01:05:34.333
  126. 01:12:05.875                             : en:01:12:05.875
  127. 01:15:38.542                             : en:01:15:38.542
  128. 01:25:00.042                             : en:01:25:00.042
  129. 01:29:52.667                             : en:01:29:52.667
  130. 01:35:17.000                             : en:01:35:17.000
  131. 01:41:50.125                             : en:01:41:50.125
  132. 01:46:44.417                             : en:01:46:44.417
  133. 01:52:47.750                             : en:01:52:47.750
  134. 01:57:24.250                             : en:01:57:24.250
复制代码




TAGS 动作 冒险 剧情 惊悚 /

磁力链:
  • magnet:?xt=urn:btih:EB8F5EB24961BC2F350ECF1899C2CB2C0D2BE009
上传的附件:
BT9527电影天堂 1、BT9527电影天堂提供的BT文件均来源于互联网抓取,只供网友学习交流、技术提升使用。
2、我们遵守BitTorrent点对点协议原则,任何版权问题请联系原资源发布商,我们不处理任何版权纠纷,谢谢!如有争议请联系邮箱:BT9527#hotmail.com(#换成@)
3、如果您发现某页面或地址有错误,请联系站长邮箱BT9527#hotmail.com(#换成@),我们会尽快处理。您的热心是对BT9527电影天堂最大的支持。
4、本站建议去正规影院观看电影以支持电影行业发展。
最新回复 (0)

你可以在 登录 or 注册 后,对此帖发表评论!

返回
发新帖