功夫瑜伽[国语音轨/中文字幕].Kung.Fu.Yoga.2017.BluRay.1080p.x265.10bit-MiniHD 6.25GB

版主小s 1月前 154



◎译  名 功夫瑜伽 / Kung Fu Yoga
◎年  代 2017
◎产  地 中国大陆 / 印度
◎类  别 喜剧 / 动作 / 冒险
◎语  言 汉语普通话 / 英语 / 印地语 / 阿拉伯语
◎上映日期 2017-01-28(中国大陆)
◎IMDb链接 https://www.imdb.com/title/tt4217392/
◎豆瓣评分 5.0/10 (174838人评价)
◎豆瓣链接 https://movie.douban.com/subject/26182910/
◎片  长 108分钟
◎导  演 唐季礼 Stanley Tong (id:1299382)
◎编  剧 唐季礼 Stanley Tong (id:1299382)
◎演  员 成龙 Jackie Chan (id:1054531)
       李治廷 Aarif Lee (id:1274292)
       张艺兴 Yixing Zhang (id:1338949)
       索努·苏德 Sonu Sood (id:1327209)
       母其弥雅 Miya Muqi (id:1343228)
       迪莎·帕塔尼 Disha Patani (id:1362818)
       艾米拉·达斯特 Amyra Dastur (id:1338315)
       尚语贤 Yuxian Shang (id:1351584)
       姜雯 Wen Jiang (id:1323786)
       张国立 Guoli Zhang (id:1015115)
       高明 Ming Gao (id:1009107)
       阿米达普·巴强 Amitabh Bachchan (id:1027845)
       莉娅·森 Riya Sen (id:1005134)
       安得路 Andrew Lane Cawthon (id:1417122)
       达伦·格罗夫纳 Darren Grosvenor (id:1351374)
       周小斌 Xiaobin Zhou (id:1316604)
       马修·雷·鲁格斯 Matthew Ray Ruggles (id:1379178)
       曾志伟 Eric Tsang (id:1002862)
       覃宏 Hong Qin (id:1275502)
       王伟 Wei Wang (id:1313929)
       傅若清 Ruoqing Fu (id:1417588)
       王经纬 Jingwei Wang (id:1450453)
       孙嵘 Rong Sun (id:1466974)
       王宗贤 Nathan Wang (id:1331828)
       黄永恒 Wing-Hung Wong (id:1300411)
       张英华 Ying-Wah Cheung (id:1388358)
       曾景祥 Kinson Tsang (id:1299575)
       李昭桦 Charles Lee (id:1352759)
       金钟铉 Jonghyun Jin (id:1386949)
       聂荣鑫 Rongxin Nie (id:1459214)
       徐展雄 Zhanxiong Xu (id:1383327)

◎简  介
  考古学教授Jack(成龙 饰)多年没有踏出学校,校长和学生都对他添油加醋的历史半信半疑。一次授课后,一个印度女孩找到Jack,用一张千年地图吸引了Jack的目光。于是Jack和挚友的儿子李琼斯(李治廷 饰)、助教小光(张艺兴 饰)组成“寻宝小分队”,为“神秘宝石”展开冒险,在迪拜和土豪飙车,在冰岛潜入神秘冰穴,在印度大战土狼,和印度贵族斗舞,动作喜剧再升级,打笑全世界。

◎获奖情况 (共2项)
  第17届中国电影华表奖 (2018)
  优秀故事片奖(提名)

  第4届豆瓣电影年度榜单 (2017)
  1月最受关注电影(提名)

  1. ##### MediaInfo ######
  2. General
  3. Unique ID                                : 246575522371210597652637244206660920127 (0xB980B7DC8790C2DBAAACE9E81503233F)
  4. Complete name                            : Kung.Fu.Yoga.2017.BluRay.1080p.x265.10bit-MiniHD.mkv
  5. Format                                   : Matroska
  6. Format version                           : Version 4
  7. File size                                : 6.25 GiB
  8. Duration                                 : 1 h 42 min
  9. Overall bit rate                         : 8 704 kb/s
  10. Encoded date                             : UTC 2017-05-10 09:51:19
  11. Writing application                      : mkvmerge v11.0.0 ('Alive') 64bit
  12. Writing library                          : libebml v1.3.4 + libmatroska v1.4.5
  13. Video
  14. ID                                       : 1
  15. Format                                   : HEVC
  16. Format/Info                              : High Efficiency Video Coding
  17. Codec ID                                 : V_MPEGH/ISO/HEVC
  18. Duration                                 : 1 h 42 min
  19. Bit rate                                 : 7 891 kb/s
  20. Width                                    : 1 920 pixels
  21. Height                                   : 808 pixels
  22. Display aspect ratio                     : 2.40:1
  23. Frame rate mode                          : Constant
  24. Frame rate                               : 25.000 FPS
  25. Bits/(Pixel*Frame)                       : 0.203
  26. Stream size                              : 5.66 GiB (91%)
  27. Default                                  : Yes
  28. Forced                                   : No
  29. Audio
  30. ID                                       : 2
  31. Format                                   : AC-3
  32. Format/Info                              : Audio Coding 3
  33. Commercial name                          : Dolby Digital
  34. Codec ID                                 : A_AC3
  35. Duration                                 : 1 h 42 min
  36. Bit rate mode                            : Constant
  37. Bit rate                                 : 640 kb/s
  38. Channel(s)                               : 6 channels
  39. Channel layout                           : L R C LFE Ls Rs
  40. Sampling rate                            : 48.0 kHz
  41. Frame rate                               : 31.250 FPS (1536 SPF)
  42. Compression mode                         : Lossy
  43. Stream size                              : 470 MiB (7%)
  44. Language                                 : Chinese
  45. Service kind                             : Complete Main
  46. Default                                  : Yes
  47. Forced                                   : No
  48. Text #1
  49. ID                                       : 3
  50. Format                                   : PGS
  51. Muxing mode                              : zlib
  52. Codec ID                                 : S_HDMV/PGS
  53. Codec ID/Info                            : Picture based subtitle format used on BDs/HD-DVDs
  54. Language                                 : Chinese
  55. Default                                  : Yes
  56. Forced                                   : No
  57. Text #2
  58. ID                                       : 4
  59. Format                                   : PGS
  60. Muxing mode                              : zlib
  61. Codec ID                                 : S_HDMV/PGS
  62. Codec ID/Info                            : Picture based subtitle format used on BDs/HD-DVDs
  63. Language                                 : Chinese
  64. Default                                  : No
  65. Forced                                   : No
  66. Menu
  67. 00:00:00.000                             : en:Chapter 01
  68. 00:10:00.599                             : en:Chapter 02
  69. 00:15:05.880                             : en:Chapter 03
  70. 00:24:08.480                             : en:Chapter 04
  71. 00:33:56.160                             : en:Chapter 05
  72. 00:42:11.560                             : en:Chapter 06
  73. 00:47:58.080                             : en:Chapter 07
  74. 00:55:15.320                             : en:Chapter 08
  75. 01:00:47.120                             : en:Chapter 09
  76. 01:08:37.200                             : en:Chapter 10
  77. 01:20:48.040                             : en:Chapter 11
  78. 01:30:12.280                             : en:Chapter 12
复制代码




TAGS 动作 冒险 喜剧 /

磁力链:
  • magnet:?xt=urn:btih:315B6012AA85F3101478CD584F19CA691CF1160A
上传的附件:
BT9527电影天堂 1、BT9527电影天堂提供的BT文件均来源于互联网抓取,只供网友学习交流、技术提升使用。
2、我们遵守BitTorrent点对点协议原则,任何版权问题请联系原资源发布商,我们不处理任何版权纠纷,谢谢!如有争议请联系邮箱:BT9527#hotmail.com(#换成@)
3、如果您发现某页面或地址有错误,请联系站长邮箱BT9527#hotmail.com(#换成@),我们会尽快处理。您的热心是对BT9527电影天堂最大的支持。
4、本站建议去正规影院观看电影以支持电影行业发展。
最新回复 (0)

你可以在 登录 or 注册 后,对此帖发表评论!

返回
发新帖