四天王[中文字幕].4.Kings.2021.THAI.1080p.NF.WEBRip.DDP5.1.x264-HBO 7.62GB

版主小s 4月前 374




◎译  名 四天王 / 4 Kings ?????? ??? 90’s / 4 ????? ????????? 90s / 4 Kings 90's
◎片  名 4 Kings
◎年  代 2021
◎产  地 泰国
◎类  别 动作 / 纪录片
◎语  言 泰语
◎IMDb链接 https://www.imdb.com/title/tt16578440/
◎豆瓣链接 https://movie.douban.com/subject/35341233/
◎片  长 140分钟
◎演  员 亚瑞克·阿莫苏帕西瑞 Arak Amornsupasiri (id:1274538)
       西拉·因塔拉乔特 Sirat Intarachote (id:1410745)
       纳特·奇查理 Nat Kitcharit (id:1439697)
       Naerunchara Lertprasert Naerunchara Lertprasert (id:1434790)

  1. Video
  2. ID                                       : 1
  3. Format                                   : AVC
  4. Format/Info                              : Advanced Video Codec
  5. Format profile                           : High@L4
  6. Format settings                          : CABAC / 4 Ref Frames
  7. Format settings, CABAC                   : Yes
  8. Format settings, Reference frames        : 4 frames
  9. Codec ID                                 : V_MPEG4/ISO/AVC
  10. Duration                                 : 2 h 18 min
  11. Bit rate mode                            : Variable
  12. Bit rate                                 : 7 226 kb/s
  13. Maximum bit rate                         : 20.0 Mb/s
  14. Width                                    : 1 920 pixels
  15. Height                                   : 1 080 pixels
  16. Display aspect ratio                     : 16:9
  17. Frame rate mode                          : Constant
  18. Frame rate                               : 24.000 FPS
  19. Color space                              : YUV
  20. Chroma subsampling                       : 4:2:0
  21. Bit depth                                : 8 bits
  22. Scan type                                : Progressive
  23. Bits/(Pixel*Frame)                       : 0.145
  24. Stream size                              : 6.99 GiB (92%)
  25. Writing library                          : x264 core 148 r2727 7d026e8
  26. Encoding settings                        : cabac=1 / ref=4 / deblock=1:0:0 / analyse=0x3:0x111 / me=umh / subme=10 / psy=1 / psy_rd=1.00:0.00 / mixed_ref=1 / me_range=120 / chroma_me=1 / trellis=2 / 8x8dct=1 / cqm=0 / deadzone=21,11 / fast_pskip=1 / chroma_qp_offset=-2 / threads=8 / lookahead_threads=2 / sliced_threads=0 / nr=0 / decimate=1 / interlaced=0 / NTMzNTQ= / bluray_compat=0 / stitchable=1 / constrained_intra=0 / bframes=16 / b_pyramid=2 / b_adapt=2 / b_bias=0 / direct=3 / weightb=1 / open_gop=0 / weightp=2 / keyint=240 / keyint_min=121 / scenecut=0 / intra_refresh=0 / rc_lookahead=240 / rc=crf / mbtree=1 / crf=16.0 / qcomp=0.50 / qpmin=6 / qpmax=51 / qpstep=4 / vbv_maxrate=20000 / vbv_bufsize=25000 / crf_max=0.0 / nal_hrd=vbr / filler=0 / NTMzNTQ=LmsMAP37EqsCpk / ip_ratio=1.40 / aq=1:0.80
  27. Default                                  : Yes
  28. Forced                                   : No

  29. Audio
  30. ID                                       : 2
  31. Format                                   : E-AC-3
  32. Format/Info                              : Enhanced AC-3
  33. Commercial name                          : Dolby Digital Plus
  34. Codec ID                                 : A_EAC3
  35. Duration                                 : 2 h 18 min
  36. Bit rate mode                            : Constant
  37. Bit rate                                 : 640 kb/s
  38. Channel(s)                               : 6 channels
  39. Channel layout                           : L R C LFE Ls Rs
  40. Sampling rate                            : 48.0 kHz
  41. Frame rate                               : 31.250 FPS (1536 SPF)
  42. Bit depth                                : 32 bits
  43. Compression mode                         : Lossy
  44. Stream size                              : 634 MiB (8%)
  45. Language                                 : Thai
  46. Service kind                             : Complete Main
  47. Default                                  : Yes
  48. Forced                                   : No

  49. Text #1
  50. ID                                       : 3
  51. Format                                   : UTF-8
  52. Codec ID                                 : S_TEXT/UTF8
  53. Codec ID/Info                            : UTF-8 Plain Text
  54. Duration                                 : 2 h 14 min
  55. Bit rate                                 : 39 b/s
  56. Count of elements                        : 1644
  57. Stream size                              : 39.4 KiB (0%)
  58. Language                                 : English
  59. Default                                  : No
  60. Forced                                   : No

  61. Text #2
  62. ID                                       : 4
  63. Format                                   : UTF-8
  64. Codec ID                                 : S_TEXT/UTF8
  65. Codec ID/Info                            : UTF-8 Plain Text
  66. Duration                                 : 2 h 18 min
  67. Bit rate                                 : 38 b/s
  68. Count of elements                        : 1646
  69. Stream size                              : 39.2 KiB (0%)
  70. Language                                 : Indonesian
  71. Default                                  : No
  72. Forced                                   : No

  73. Text #3
  74. ID                                       : 5
  75. Format                                   : UTF-8
  76. Codec ID                                 : S_TEXT/UTF8
  77. Codec ID/Info                            : UTF-8 Plain Text
  78. Duration                                 : 2 h 18 min
  79. Bit rate                                 : 38 b/s
  80. Count of elements                        : 1646
  81. Stream size                              : 39.2 KiB (0%)
  82. Language                                 : Malay
  83. Default                                  : No
  84. Forced                                   : No

  85. Text #4
  86. ID                                       : 6
  87. Format                                   : UTF-8
  88. Codec ID                                 : S_TEXT/UTF8
  89. Codec ID/Info                            : UTF-8 Plain Text
  90. Duration                                 : 2 h 14 min
  91. Bit rate                                 : 103 b/s
  92. Count of elements                        : 1633
  93. Stream size                              : 102 KiB (0%)
  94. Language                                 : Thai
  95. Default                                  : No
  96. Forced                                   : No

  97. Text #5
  98. ID                                       : 7
  99. Format                                   : UTF-8
  100. Codec ID                                 : S_TEXT/UTF8
  101. Codec ID/Info                            : UTF-8 Plain Text
  102. Duration                                 : 11 s 875 ms
  103. Bit rate                                 : 64 b/s
  104. Count of elements                        : 2
  105. Stream size                              : 95.0 Bytes (0%)
  106. Title                                    : Forced
  107. Language                                 : Thai
  108. Default                                  : No
  109. Forced                                   : Yes

  110. Text #6
  111. ID                                       : 8
  112. Format                                   : UTF-8
  113. Codec ID                                 : S_TEXT/UTF8
  114. Codec ID/Info                            : UTF-8 Plain Text
  115. Duration                                 : 2 h 18 min
  116. Bit rate                                 : 49 b/s
  117. Count of elements                        : 1647
  118. Stream size                              : 50.0 KiB (0%)
  119. Language                                 : Vietnamese
  120. Default                                  : No
  121. Forced                                   : No

  122. Text #7
  123. ID                                       : 9
  124. Format                                   : UTF-8
  125. Codec ID                                 : S_TEXT/UTF8
  126. Codec ID/Info                            : UTF-8 Plain Text
  127. Duration                                 : 2 h 18 min
  128. Bit rate                                 : 35 b/s
  129. Count of elements                        : 1646
  130. Stream size                              : 35.8 KiB (0%)
  131. Title                                    : Simplified
  132. Language                                 : Chinese
  133. Default                                  : No
  134. Forced                                   : No
复制代码




TAGS 动作 纪录片 /

磁力链:
  • magnet:?xt=urn:btih:02BA2F2B286D96F6A6C31037091FFAF5A6416BD5
上传的附件:
BT9527电影天堂 1、BT9527电影天堂提供的BT文件均来源于互联网抓取,只供网友学习交流、技术提升使用。
2、我们遵守BitTorrent点对点协议原则,任何版权问题请联系原资源发布商,我们不处理任何版权纠纷,谢谢!如有争议请联系邮箱:BT9527#hotmail.com(#换成@)
3、如果您发现某页面或地址有错误,请联系站长邮箱BT9527#hotmail.com(#换成@),我们会尽快处理。您的热心是对BT9527电影天堂最大的支持。
4、本站建议去正规影院观看电影以支持电影行业发展。
最新回复 (0)

你可以在 登录 or 注册 后,对此帖发表评论!

返回
发新帖