以青春之名[国语配音/中文字幕].The.Youth.Years.2022.2160p.WEB-DL.H265.AAC-CTRLWEB 1.73GB

版主小s 4月前 247

◎译 名 以青春之名

◎年 代 2022

◎产 地 中国大陆

◎类 别 剧情

◎语 言 汉语普通话

◎上映日期 2022-05-26(中国大陆网络)

◎IMDb链接 https://www.imdb.com/title//

◎豆瓣链接 https://movie.douban.com/subject/35909612/

◎片 长 90分钟

◎演 员 姚弛 Zeawo (id:1409931)

徐均朔 Junshuo Xu (id:1428509)

徐卫 Wei Xu (id:1367146)

艾米 Aimee (id:1396876)

罗辑 Ji Luo (id:1417084)

董润年 Runnian Dong (id:1327604)

吕行 Xing Lü (id:1371773)

田宇 Yu Tian (id:1438123)

黎志 Zhi Li (id:1327744)

姚婷婷 Tingting Yao (id:1324487)

◎简 介

影片采用跨时空视角和篇章式结构,通览建团百年的历史区间,展现出不同年代、不同地域背景下的青春脉动。影片共分为《回响》《繁星》《光亮》《你听》《热雪》五个篇章,广泛挖掘每个时代青年群体的奋斗历程,选取“地下共青团员”“航天人二代”“创业大学生”“支教老师”“北京冬奥服务保 障人员”等不同时代、不同身份的青年形象。从救亡图存的舍生取义到航天事业的筚路蓝缕,从改革开放的敢为人先到精准扶贫的担当有为、青年医生的热血仁心……

篇章一《回响》

故事发生在东北抗战史上特殊的左翼文化阵地——哈尔滨口琴社。哈尔滨口琴社以“德汇洋行”为挡箭牌,负责秘密接头、发展党员和团员等组织活动。1936年初春,由于叛徒告密,特务机关以“国光”牌口琴为诱饵设置了一场搜查陷阱。特务机关安排了一位“不速之客”假扮与口琴社的对接人员,上演了一场“贼喊捉贼”的戏码,并误将矛头对准了前来取货的...

  1. ##### MediaInfo ######

  2. General

  3. Complete name : The.Youth.Years.2022.2160p.WEB-DL.H265.AAC-CTRLWEB.mp4

  4. Format : MPEG-4

  5. Format profile : Base Media

  6. Codec ID : isom (isom/iso2/mp41)

  7. File size : 1.73 GiB

  8. Duration : 1 h 31 min

  9. Overall bit rate mode : Variable

  10. Overall bit rate : 2 709 kb/s

  11. Recorded date : 2022-05-27T20:46:54.6557747+08:00

  12. Writing application : Lavf58.32.104

  13. Video

  14. ID : 1

  15. Format : HEVC

  16. Format/Info : High Efficiency Video Coding

  17. Format profile : Main@L5@Main

  18. Codec ID : hev1

  19. Codec ID/Info : High Efficiency Video Coding

  20. Duration : 1 h 31 min

  21. Bit rate : 2 513 kb/s

  22. Width : 3 840 pixels

  23. Height : 1 632 pixels

  24. Display aspect ratio : 2.35:1

  25. Frame rate mode : Constant

  26. Frame rate : 24.000 FPS

  27. Color space : YUV

  28. Chroma subsampling : 4:2:0

  29. Bit depth : 8 bits

  30. Bits/(Pixel*Frame) : 0.017

  31. Stream size : 1.60 GiB (93%)

  32. Color range : Limited

  33. Color primaries : BT.709

  34. Transfer characteristics : BT.709

  35. Matrix coefficients : BT.709

  36. Codec configuration box : hvcC

  37. Audio

  38. ID : 2

  39. Format : AAC LC

  40. Format/Info : Advanced Audio Codec Low Complexity

  41. Codec ID : mp4a-40-2

  42. Duration : 1 h 31 min

  43. Bit rate mode : Variable

  44. Bit rate : 192 kb/s

  45. Maximum bit rate : 212 kb/s

  46. Channel(s) : 2 channels

  47. Channel layout : L R

  48. Sampling rate : 44.1 kHz

  49. Frame rate : 43.066 FPS (1024 SPF)

  50. Compression mode : Lossy

  51. Stream size : 124 MiB (7%)

  52. Default : Yes

  53. Alternate group : 1


复制代码


TAGS 剧情

磁力链:
  • magnet:?xt=urn:btih:AC801C99238E1A2DEC1C7AA3DEB0D65F6EC1981A
上传的附件:
BT9527电影天堂 1、BT9527电影天堂提供的BT文件均来源于互联网抓取,只供网友学习交流、技术提升使用。
2、我们遵守BitTorrent点对点协议原则,任何版权问题请联系原资源发布商,我们不处理任何版权纠纷,谢谢!如有争议请联系邮箱:BT9527#hotmail.com(#换成@)
3、如果您发现某页面或地址有错误,请联系站长邮箱BT9527#hotmail.com(#换成@),我们会尽快处理。您的热心是对BT9527电影天堂最大的支持。
4、本站建议去正规影院观看电影以支持电影行业发展。
最新回复 (0)

你可以在 登录 or 注册 后,对此帖发表评论!

返回