双手[中文字幕].Two.Hands.1999.BluRay.1080p.DTS-HD.MA.5.1.x265.10bit-CTRLHD 4.87GB

版主小s 27天前 129

◎译 名 双手 / 屎蛋两头烧

◎片 名 Two Hands

◎年 代 1999

◎产 地 澳大利亚

◎类 别 喜剧 / 犯罪

◎语 言 英语

◎上映日期 1999-07-29

◎IMDb链接 https://www.imdb.com/title/tt0145547/

◎豆瓣评分 7.3/10 (695人评价)

◎豆瓣链接 https://movie.douban.com/subject/1306256/

◎片 长 103 分钟

◎导 演 格雷格·乔丹 Gregor Jordan (id:1287928)

◎编 剧 格雷格·乔丹 Gregor Jordan (id:1287928)

◎演 员 苏茜·波特 Susie Porter (id:1294759)

史蒂文·维德勒 Steven Vidler (id:1300039)

Tom Long Tom Long (id:1290281)

布莱恩·布朗 Bryan Brown (id:1013730)

瓦维克·杨 Warwick Young (id:1019399)

理查德·卡特 Richard Carter (id:1074257)

Salvatore Coco Salvatore Coco (id:1075459)

杰罗姆·埃勒斯 Jerome Ehlers (id:1084897)

基兰·达西-史密斯 Kieran Darcy-Smith (id:1089377)

史蒂芬·李·马奎德 Steve Le Marquand (id:1103952)

米切尔·巴特尔 Mitchell Butel (id:1279745)

大卫·菲尔德 David Field (id:1283671)

希斯·莱杰 Heath Ledger (id:1006957)

罗丝·伯恩 Rose Byrne (id:1022562)

玛丽安·麦克戈温 Marian Macgowan (id:1290622)

Timothy White Timothy White (id:1300821)

采扎里库·斯库比谢夫斯基 Cezary Skubiszewski (id:1297757)

Malcolm McCulloch Malcolm McCulloch (id:1291508)

李·史密斯 Lee Smith (id:1297902)

Steven Jones-Evans Steven Jones-Evans (id:1287901)

艾米莉·塞瑞辛 Emily Seresin (id:1297230)

Paul Katte Paul Katte (id:1288193)

凯西·汉隆 Cassie Hanlon (id:1285971)

Nick Nicolaou Nick Nicolaou (id:1293153)

Tina Gordon Tina Gordon (id:1091684)

马克·内特尔顿 Mark Nettleton (id:1293077)

Peter Doyle Peter Doyle (id:1282686)

蒂姆·克罗斯比 Tim Crosbie (id:1281511)

乔恩·萨姆 Jon Thum (id:1299235)

史蒂夫·莫里斯 Steve Morris (id:1419977)

◎简 介

本片曾获得99年澳洲电影金像奖最佳影片/导演/原著剧本/男配角/剪接…等十一项提名,由澳洲男演员希斯莱杰(Heath Ledger)片中饰演主角吉米。一个充满屎蛋风格的笨拙黑色喜剧。

19岁的吉米(Heath Ledger)是个涉世未深的街头混混,原本在脱衣舞娘酒馆当保镖,因缘际会认识了甜美忧伤的雅丽媞(Rose Byrne),纯真的爱情就此发酵。

然而,吉米因为答应镇上黑帮毒虫老大旁多一件差事,途中却因两个半路杀出的贼小孩,差点丢了性命。吉米的决定、两个小孩的未来…导演用超现实阴阳交错多轨的叙事情境说故事。究竟是福是祸,上帝与魔鬼,邪恶与纯真的界线在哪里?吉米最后该如何决定摆脱命运呢?

  1. ##### MediaInfo ######

  2. General

  3. Unique ID : 57712816940022141338003062358681751103 (0x2B6B15903A004462827F457D478E8E3F)

  4. Complete name : Two.Hands.1999.BluRay.1080p.DTS-HD.MA.5.1.x265.10bit-CTRLHD.mkv

  5. Format : Matroska

  6. Format version : Version 4

  7. File size : 4.86 GiB

  8. Duration : 1 h 33 min

  9. Overall bit rate mode : Variable

  10. Overall bit rate : 7 442 kb/s

  11. Encoded date : UTC 2022-05-22 05:08:19

  12. Writing application : mkvmerge v45.0.0 ('Heaven in Pennies') 64-bit

  13. Writing library : libebml v1.3.10 + libmatroska v1.5.2

  14. Video

  15. ID : 1

  16. Format : HEVC

  17. Format/Info : High Efficiency Video Coding

  18. Format profile : Main 10@L5.1@High

  19. Codec ID : V_MPEGH/ISO/HEVC

  20. Duration : 1 h 33 min

  21. Bit rate : 5 504 kb/s

  22. Width : 1 920 pixels

  23. Height : 1 040 pixels

  24. Display aspect ratio : 1.85:1

  25. Frame rate mode : Constant

  26. Frame rate : 23.976 (24000/1001/53354) FPS

  27. Color space : YUV

  28. Chroma subsampling : 4:2:0

  29. Bit depth : 10 bits

  30. Bits/(Pixel*Frame) : 0.115

  31. Stream size : 3.60 GiB (74%)

  32. Writing library : x265 3.4+24-g6ed1c24a2:[Windows][GCC 10.2.1][64 bit] 10bit

  33. Encoding settings : cpuid=533541111039 / frame-threads=3 / numa-pools=12 / wpp / pmode / pme / no-psnr / no-ssim / log-level=2 / input-csp=1 / input-res=1920x1040 / interlace=0 / total-frames=134622 / level-idc=51 / high-tier=1 / uhd-bd=0 / ref=4 / no-allow-non-conformance / repeat-headers / annexb / no-aud / no-hrd / info / hash=0 / no-temporal-layers / no-open-gop / min-keyint=23 / keyint=250 / gop-lookahead=0 / bframes=8 / b-adapt=2 / b-pyramid / bframe-bias=0 / rc-lookahead=60 / lookahead-slices=6 / NTMzNTQ=uuDQuD2mJt9fsCf / scenecut=40 / hist-scenecut=0 / radl=0 / no-splice / no-intra-refresh / ctu=32 / min-cu-size=8 / no-rect / no-amp / max-tu-size=32 / tu-inter-depth=3 / tu-intra-depth=3 / limit-tu=0 / rdoq-level=0 / dynamic-rd=0.00 / no-ssim-rd / signhide / no-tskip / nr-intra=0 / nr-inter=0 / no-constrained-intra / strong-intra-smoothing / max-merge=3 / limit-refs=1 / no-limit-modes / me=2 / subme=5 / merange=48 / temporal-mvp / no-frame-dup / no-hme / weightp / weightb / no-analyze-src-pics / deblock=0:0 / no-sao / no-sao-non-deblock / rd=3 / selective-sao=0 / early-skip / rskip / no-fast-intra / no-tskip-fast / no-cu-lossless / b-intra / no-splitrd-skip / rdpenalty=1 / psy-rd=2.00 / psy-rdoq=0.00 / no-rd-refine / no-lossless / cbqpoffs=0 / crqpoffs=0 / rc=crf / crf=19.6 / qcomp=0.50 / qpstep=4 / stats-write=0 / stats-read=0 / vbv-maxrate=160000 / vbv-bufsize=160000 / vbv-init=0.9 / crf-max=0.0 / crf-min=0.0 / ipratio=1.40 / pbratio=1.20 / aq-mode=2 / aq-strength=0.90 / cutree / zone-count=0 / no-strict-cbr / qg-size=32 / no-rc-grain / qpmax=69 / qpmin=0 / no-const-vbv / sar=0 / overscan=0 / videoformat=5 / range=0 / colorprim=1 / transfer=1 / colormatrix=1 / chromaloc=0 / display-window=0 / cll=0,0 / min-luma=0 / max-luma=1023 / log2-max-poc-lsb=8 / vui-timing-info / vui-hrd-info / slices=1 / no-opt-qp-pps / no-opt-ref-list-length-pps / no-multi-pass-opt-rps / scenecut-bias=0.05 / hist-threshold=0.03 / no-opt-cu-delta-qp / no-aq-motion / no-hdr10 / no-hdr10-opt / no-dhdr10-opt / no-idr-recovery-sei / analysis-reuse-level=0 / analysis-save-reuse-level=0 / analysis-load-reuse-level=0 / scale-factor=0 / refine-intra=0 / refine-inter=0 / refine-mv=1 / refine-ctu-distortion=0 / no-limit-sao / ctu-info=0 / no-lowpass-dct / refine-analysis-type=0 / copy-pic=1 / max-ausize-factor=1.0 / no-dynamic-refine / no-single-sei / no-hevc-aq / no-svt / no-field / qp-adaptation-range=1.00 / no-scenecut-aware-qpconformance-window-offsets / right=0 / bottom=0 / NTMzNTQ= / decoder-max-rate=0 / no-vbv-live-multi-pass

  34. Default : Yes

  35. Forced : No

  36. Color range : Limited

  37. Color primaries : BT.709

  38. Transfer characteristics : BT.709

  39. Matrix coefficients : BT.709

  40. Audio

  41. ID : 2

  42. Format : DTS XLL

  43. Format/Info : Digital Theater Systems

  44. Commercial name : DTS-HD Master Audio

  45. Codec ID : A_DTS

  46. Duration : 1 h 33 min

  47. Bit rate mode : Variable

  48. Bit rate : 1 871 kb/s

  49. Channel(s) : 6 channels

  50. Channel layout : C L R Ls Rs LFE

  51. Sampling rate : 48.0 kHz

  52. Frame rate : 93.750 FPS (512 SPF)

  53. Bit depth : 16 bits

  54. Compression mode : Lossless

  55. Stream size : 1.22 GiB (25%)

  56. Language : English

  57. Default : Yes

  58. Forced : No

  59. Text #1

  60. ID : 3

  61. Format : PGS

  62. Muxing mode : zlib

  63. Codec ID : S_HDMV/PGS

  64. Codec ID/Info : Picture based subtitle format used on BDs/HD-DVDs

  65. Duration : 1 h 31 min

  66. Bit rate : 24.6 kb/s

  67. Count of elements : 2030

  68. Stream size : 16.0 MiB (0%)

  69. Language : Chinese

  70. Default : No

  71. Forced : No

  72. Text #2

  73. ID : 4

  74. Format : PGS

  75. Muxing mode : zlib

  76. Codec ID : S_HDMV/PGS

  77. Codec ID/Info : Picture based subtitle format used on BDs/HD-DVDs

  78. Duration : 1 h 31 min

  79. Bit rate : 24.7 kb/s

  80. Count of elements : 2030

  81. Stream size : 16.1 MiB (0%)

  82. Language : Chinese

  83. Default : No

  84. Forced : No

  85. Text #3

  86. ID : 5

  87. Format : PGS

  88. Muxing mode : zlib

  89. Codec ID : S_HDMV/PGS

  90. Codec ID/Info : Picture based subtitle format used on BDs/HD-DVDs

  91. Duration : 1 h 31 min

  92. Bit rate : 41.6 kb/s

  93. Count of elements : 2030

  94. Stream size : 27.1 MiB (1%)

  95. Language : Chinese

  96. Default : Yes

  97. Forced : No

  98. Text #4

  99. ID : 6

  100. Format : PGS

  101. Muxing mode : zlib

  102. Codec ID : S_HDMV/PGS

  103. Codec ID/Info : Picture based subtitle format used on BDs/HD-DVDs

  104. Duration : 1 h 31 min

  105. Bit rate : 41.7 kb/s

  106. Count of elements : 2030

  107. Stream size : 27.2 MiB (1%)

  108. Language : Chinese

  109. Default : No

  110. Forced : No

  111. Menu

  112. 00:00:00.000 : en:Chapter 1

  113. 00:05:45.762 : en:Chapter 2

  114. 00:09:42.415 : en:Chapter 3

  115. 00:18:10.715 : en:Chapter 4

  116. 00:23:39.835 : en:Chapter 5

  117. 00:29:34.982 : en:Chapter 6

  118. 00:34:44.082 : en:Chapter 7

  119. 00:41:04.295 : en:Chapter 8

  120. 00:46:17.441 : en:Chapter 9

  121. 00:55:20.025 : en:Chapter 10

  122. 01:00:52.065 : en:Chapter 11

  123. 01:08:05.915 : en:Chapter 12

  124. 01:12:52.201 : en:Chapter 13

  125. 01:19:36.188 : en:Chapter 14

  126. 01:25:36.965 : en:Chapter 15

  127. 01:30:12.198 : en:Chapter 16


复制代码


TAGS 犯罪 喜剧 /

磁力链:
  • magnet:?xt=urn:btih:1F87000D9AF481680838E9C12990E1638AD440F5
上传的附件:
BT9527电影天堂 1、BT9527电影天堂提供的BT文件均来源于互联网抓取,只供网友学习交流、技术提升使用。
2、我们遵守BitTorrent点对点协议原则,任何版权问题请联系原资源发布商,我们不处理任何版权纠纷,谢谢!如有争议请联系邮箱:BT9527#hotmail.com(#换成@)
3、如果您发现某页面或地址有错误,请联系站长邮箱BT9527#hotmail.com(#换成@),我们会尽快处理。您的热心是对BT9527电影天堂最大的支持。
4、本站建议去正规影院观看电影以支持电影行业发展。
最新回复 (0)

你可以在 登录 or 注册 后,对此帖发表评论!

返回
发新帖