科伦拜校园事件[中文字幕].Bowling.for.Columbine.2002.1080p.BluRay.DTS.x265-10bit-ENTHD 7.13GB

版主小s 4月前 353



◎译  名 科伦拜校园事件 / 科伦拜恩的保龄 / 美國黐Gun檔案
◎片  名 Bowling for Columbine
◎年  代 2002
◎产  地 加拿大 / 美国 / 德国
◎类  别 纪录片 / 历史
◎语  言 英语
◎上映日期 2002-05-15
◎IMDb链接 https://www.imdb.com/title/tt0310793/
◎豆瓣评分 8.6/10 (5368人评价)
◎豆瓣链接 https://movie.douban.com/subject/1297112/
◎片  长 120 分钟
◎导  演 迈克尔·摩尔 Michael Moore (id:1044929)
◎编  剧 迈克尔·摩尔 Michael Moore (id:1044929)
◎演  员 迈克尔·摩尔 Michael Moore (id:1044929)
       布兰登·T·杰克逊 Brandon T. Jackson (id:1031906)
       罗布·许贝尔 Rob Huebel (id:1174693)
       查尔顿·赫斯顿 Charlton Heston (id:1027817)
       迪克·克拉克 Dick Clark (id:1036692)
       马特·斯通 Matt Stone (id:1018038)
       玛丽莲·曼森 Marilyn Manson (id:1013881)
       Denise Ames Denise Ames (id:1056223)
       Kathleen Glynn Kathleen Glynn (id:1000974)
       梅根·奥哈拉 Meghan O'Hara (id:1308410)
       Charles Bishop Charles Bishop (id:1303002)
       Wolfram Tichy Wolfram Tichy (id:1299256)
       蒂娅·莱辛 Tia Lessin (id:1289848)
       Kurt Engfehr Kurt Engfehr (id:1283211)
       Jeff Gibbs Jeff Gibbs (id:1306008)
       迈克尔·多诺万 Michael Donovan (id:1282596)
       Jim Czarnecki Jim Czarnecki (id:1281664)
       迈克尔·摩尔 Michael Moore (id:1044929)
       Jeff Gibbs Jeff Gibbs (id:1306008)
       Kurt Engfehr Kurt Engfehr (id:1283211)

◎简  介
  这部记录片拍摄的起因是美国哥伦比亚中学的校园枪击事件。纪录片人摩尔着眼于大屠杀的背景、环境以及公众对这个事件反应,深入到美国暴力事件的本质,把枪支作为一种符号来探讨美国自由和自我毁灭之间的联系与矛盾。                                    
                                摩尔通过与南方公园作者Matt Stone、美国枪支协会时任主席Charlton Heston和音乐人Marilyn Manson等人的互动,逐步揭示出科伦拜恩大屠杀发生和美国高暴力犯罪的根源。

◎获奖情况 (共4项)
  第75届奥斯卡金像奖 (2003)
  最佳纪录长片

  第55届戛纳电影节 (2002)
  主竞赛单元 金棕榈奖(提名)
   └──迈克尔·摩尔 (id:1044929)
  55周年纪念奖
   └──迈克尔·摩尔 (id:1044929)

  第50届圣塞巴斯蒂安国际电影节 (2002)
  观众选择奖
   └──迈克尔·摩尔 (id:1044929)

  1. ##### MediaInfo ######
  2. General
  3. Unique ID                                : 31932756622189443705821530066849321744 (0x18060674B9116A3B92E8ADEF051F5310)
  4. Complete name                            : Bowling.for.Columbine.2002.1080p.BluRay.DTS.x265-10bit-ENTHD.mkv
  5. Format                                   : Matroska
  6. Format version                           : Version 4
  7. File size                                : 7.13 GiB
  8. Duration                                 : 2 h 0 min
  9. Overall bit rate                         : 8 501 kb/s
  10. Movie name                               : Bowling for Columbine 2002 1080p BluRay DTS x265-10bit-HDS
  11. Encoded date                             : UTC 2022-05-26 22:38:51
  12. Writing application                      : mkvmerge v67.0.0 ('Under Stars') 64-bit
  13. Writing library                          : libebml v1.4.2 + libmatroska v1.6.4
  14. Video
  15. ID                                       : 1
  16. Format                                   : HEVC
  17. Format/Info                              : High Efficiency Video Coding
  18. Format profile                           : Main 10@L5.1@High
  19. Codec ID                                 : V_MPEGH/ISO/HEVC
  20. Duration                                 : 2 h 0 min
  21. Bit rate                                 : 6 931 kb/s
  22. Width                                    : 1 920 pixels
  23. Height                                   : 1 040 pixels
  24. Display aspect ratio                     : 1.85:1
  25. Frame rate mode                          : Constant
  26. Frame rate                               : 23.976 (24000/1001/53354) FPS
  27. Color space                              : YUV
  28. Chroma subsampling                       : 4:2:0
  29. Bit depth                                : 10 bits
  30. Bits/(Pixel*Frame)                       : 0.145
  31. Stream size                              : 5.81 GiB (82%)
  32. Title                                    : @HDSky
  33. Writing library                          : x265 - H.265/HEVC codec
  34. Default                                  : Yes
  35. Forced                                   : No
  36. Audio
  37. ID                                       : 2
  38. Format                                   : DTS
  39. Format/Info                              : Digital Theater Systems
  40. Codec ID                                 : A_DTS
  41. Duration                                 : 2 h 0 min
  42. Bit rate mode                            : Constant
  43. Bit rate                                 : 1 509 kb/s
  44. Channel(s)                               : 2 channels
  45. Channel layout                           : Lt Rt
  46. Sampling rate                            : 48.0 kHz
  47. Frame rate                               : 93.750 FPS (512 SPF)
  48. Bit depth                                : 24 bits
  49. Compression mode                         : Lossy
  50. Stream size                              : 1.27 GiB (18%)
  51. Title                                    : English
  52. Language                                 : English
  53. Default                                  : Yes
  54. Forced                                   : No
  55. Text #1
  56. ID                                       : 3
  57. Format                                   : PGS
  58. Muxing mode                              : zlib
  59. Codec ID                                 : S_HDMV/PGS
  60. Codec ID/Info                            : Picture based subtitle format used on BDs/HD-DVDs
  61. Duration                                 : 1 h 56 min
  62. Bit rate                                 : 55.8 kb/s
  63. Count of elements                        : 2283
  64. Stream size                              : 46.5 MiB (1%)
  65. Title                                    : CHS
  66. Language                                 : Chinese
  67. Default                                  : Yes
  68. Forced                                   : No
  69. Text #2
  70. ID                                       : 4
  71. Format                                   : PGS
  72. Muxing mode                              : zlib
  73. Codec ID                                 : S_HDMV/PGS
  74. Codec ID/Info                            : Picture based subtitle format used on BDs/HD-DVDs
  75. Duration                                 : 1 h 56 min
  76. Bit rate                                 : 56.8 kb/s
  77. Count of elements                        : 2283
  78. Stream size                              : 47.4 MiB (1%)
  79. Title                                    : CHT
  80. Language                                 : Chinese
  81. Default                                  : Yes
  82. Forced                                   : No
  83. Menu
  84. 00:00:00.000                             : en:第 01 章
  85. 00:04:22.679                             : en:第 02 章
  86. 00:11:42.869                             : en:第 03 章
  87. 00:14:39.378                             : en:第 04 章
  88. 00:18:05.960                             : en:第 05 章
  89. 00:21:04.096                             : en:第 06 章
  90. 00:26:11.570                             : en:第 07 章
  91. 00:29:46.493                             : en:第 08 章
  92. 00:35:26.291                             : en:第 09 章
  93. 00:38:38.191                             : en:第 10 章
  94. 00:41:17.433                             : en:第 11 章
  95. 00:44:09.522                             : en:第 12 章
  96. 00:48:05.299                             : en:第 13 章
  97. 00:52:50.501                             : en:第 14 章
  98. 00:56:06.905                             : en:第 15 章
  99. 00:59:11.673                             : en:第 16 章
  100. 01:07:47.355                             : en:第 17 章
  101. 01:11:53.100                             : en:第 18 章
  102. 01:15:24.061                             : en:第 19 章
  103. 01:22:39.538                             : en:第 20 章
  104. 01:29:11.972                             : en:第 21 章
  105. 01:31:51.548                             : en:第 22 章
  106. 01:37:33.765                             : en:第 23 章
  107. 01:40:09.045                             : en:第 24 章
  108. 01:47:49.755                             : en:第 25 章
  109. 01:56:44.623                             : en:第 26 章
复制代码




TAGS 纪录片 历史 /

磁力链:
  • magnet:?xt=urn:btih:23571E69292B3C1B8DEC6D9E62281BE6E3E29973
上传的附件:
BT9527电影天堂 1、BT9527电影天堂提供的BT文件均来源于互联网抓取,只供网友学习交流、技术提升使用。
2、我们遵守BitTorrent点对点协议原则,任何版权问题请联系原资源发布商,我们不处理任何版权纠纷,谢谢!如有争议请联系邮箱:BT9527#hotmail.com(#换成@)
3、如果您发现某页面或地址有错误,请联系站长邮箱BT9527#hotmail.com(#换成@),我们会尽快处理。您的热心是对BT9527电影天堂最大的支持。
4、本站建议去正规影院观看电影以支持电影行业发展。
最新回复 (0)

你可以在 登录 or 注册 后,对此帖发表评论!

返回
发新帖