土拨鼠之日[国英多音轨/中英字幕].Groundhog.Day.1993.BluRay.1080p.x265.10bit.2Audio-MiniHD 6.06GB

版主小s 27天前 116



◎译  名 土拨鼠之日 / 今天暂时停止(台) / 偷天情缘 / 土拨鼠日 / 圣烛节 / 二月二日圣烛节
◎片  名 Groundhog Day
◎年  代 1993
◎产  地 美国
◎类  别 剧情 / 喜剧 / 爱情 / 奇幻
◎语  言 英语 / 法语 / 意大利语
◎上映日期 1993-02-12(美国)
◎IMDb链接 https://www.imdb.com/title/tt0107048/
◎豆瓣评分 8.6/10 (176641人评价)
◎豆瓣链接 https://movie.douban.com/subject/1300613/
◎片  长 101分钟
◎导  演 哈罗德·雷米斯 Harold Ramis (id:1040554)
◎编  剧 哈罗德·雷米斯 Harold Ramis (id:1040554)
       丹尼·鲁宾 Danny Rubin (id:1296274)
◎演  员 比尔·默瑞 Bill Murray (id:1054508)
       安迪·麦克道威尔 Andie MacDowell (id:1048128)
       克里斯·艾略特 Chris Elliott (id:1019077)
       斯蒂芬·托布罗斯基 Stephen Tobolowsky (id:1019062)
       布赖恩·道尔 Brian Doyle (id:1041163)
       瑞克·欧弗顿 Rick Overton (id:1025338)
       威利·加森 Willie Garson (id:1031932)
       安吉拉·佩顿 Angela Paton (id:1126322)
       里克·杜科蒙 Rick Ducommun (id:1090487)
       罗宾·杜克 Robin Duke (id:1032723)
       肯·哈德森·坎贝尔 Ken Hudson Campbell (id:1068149)
       莱斯·波德威尔 Les Podewell (id:1126280)
       Lucina Paquet Lucina Paquet (id:1127818)
       迈克尔·珊农 Michael Shannon (id:1144415)
       约翰·M·沃森 John M. Watson Sr. (id:1164595)
       Martha Webster Martha Webster (id:1166093)
       海登·瓦尔希 Hynden Walch (id:1167439)
       大卫·帕斯奎斯 David Pasquesi (id:1359258)
       Grady Hutt Grady Hutt (id:1112931)
       C.O. Erickson C.O. Erickson (id:1038310)
       哈罗德·雷米斯 Harold Ramis (id:1040554)
       马瑞塔·杰拉蒂 Marita Geraghty (id:1398354)
       哈罗德·雷米斯 Harold Ramis (id:1040554)
       C.O. Erickson C.O. Erickson (id:1038310)
       乔治·芬顿 George Fenton (id:1028224)
       约翰·贝利 John Bailey (id:1055661)
       佩姆布罗克·J·赫林 Pembroke J. Herring (id:1286514)
       霍华德·弗尤尔 Howard Feuer (id:1082153)
       珍妮弗·巴特勒 Jennifer Butler (id:1045197)
       Dorothy J. Pearl Dorothy J. Pearl (id:1294172)
       迈克尔·黑利 Michael Haley (id:1050644)
       Timothy J. Lonsdale Timothy J. Lonsdale (id:1051996)
       史蒂夫·博伊姆 Steve Boyum (id:1050569)

◎简  介
  菲尔(Bill Murray饰)是个气象播报员,每天除了在摄像机前给观众做风趣幽默的天气预报外,每年的2月2日他还要前往一个名为普苏塔尼的边境小镇,报导当地的土拨鼠日庆典。                                    
                                事实上,菲尔对这一节日相当嗤之以鼻并开始对工作感到厌倦,当他例行公事完成今年的报导后,便急不可待地想重返家园,却因为一场突如其来的暴风雪耽搁了。                                    
                                第2天醒来后,菲尔意外地发现时间仍然停留在前一天土拨鼠日,昨日的一切重新上演。惊讶、不信、刺激、狂喜、烦闷、焦虑、不安、绝望、倦怠等各种情绪轮流侵占菲尔的感官领域,可无论他如何选择度过这一天,他都始终无法再前进一步,开始了他重复的人生。

◎获奖情况 (共1项)
  第47届英国电影学院奖 (1994)
  电影奖 最佳原创剧本

  1. ##### MediaInfo ######
  2. General
  3. Unique ID                                : 190270431788491886618626217143756328386 (0x8F24C090EB5DC9AE8181A4BAE6030DC2)
  4. Complete name                            : Groundhog.Day.1993.BluRay.1080p.x265.10bit.2Audio-MiniHD.mkv
  5. Format                                   : Matroska
  6. Format version                           : Version 4
  7. File size                                : 6.06 GiB
  8. Duration                                 : 1 h 41 min
  9. Overall bit rate                         : 8 579 kb/s
  10. Encoded date                             : UTC 2017-08-15 03:06:34
  11. Writing application                      : mkvmerge v11.0.0 ('Alive') 64bit
  12. Writing library                          : libebml v1.3.4 + libmatroska v1.4.5
  13. Video
  14. ID                                       : 1
  15. Format                                   : HEVC
  16. Format/Info                              : High Efficiency Video Coding
  17. Codec ID                                 : V_MPEGH/ISO/HEVC
  18. Duration                                 : 1 h 41 min
  19. Bit rate                                 : 7 887 kb/s
  20. Width                                    : 1 920 pixels
  21. Height                                   : 1 040 pixels
  22. Display aspect ratio                     : 1.85:1
  23. Frame rate mode                          : Constant
  24. Frame rate                               : 23.976 (24000/1001/53354) FPS
  25. Bits/(Pixel*Frame)                       : 0.165
  26. Stream size                              : 5.57 GiB (92%)
  27. Default                                  : Yes
  28. Forced                                   : No
  29. Audio #1
  30. ID                                       : 2
  31. Format                                   : AC-3
  32. Format/Info                              : Audio Coding 3
  33. Commercial name                          : Dolby Digital
  34. Codec ID                                 : A_AC3
  35. Duration                                 : 1 h 41 min
  36. Bit rate mode                            : Constant
  37. Bit rate                                 : 448 kb/s
  38. Channel(s)                               : 6 channels
  39. Channel layout                           : L R C LFE Ls Rs
  40. Sampling rate                            : 48.0 kHz
  41. Frame rate                               : 31.250 FPS (1536 SPF)
  42. Compression mode                         : Lossy
  43. Stream size                              : 324 MiB (5%)
  44. Language                                 : English
  45. Service kind                             : Complete Main
  46. Default                                  : Yes
  47. Forced                                   : No
  48. Audio #2
  49. ID                                       : 3
  50. Format                                   : AC-3
  51. Format/Info                              : Audio Coding 3
  52. Commercial name                          : Dolby Digital
  53. Codec ID                                 : A_AC3
  54. Duration                                 : 1 h 41 min
  55. Bit rate mode                            : Constant
  56. Bit rate                                 : 192 kb/s
  57. Channel(s)                               : 2 channels
  58. Channel layout                           : L R
  59. Sampling rate                            : 48.0 kHz
  60. Frame rate                               : 31.250 FPS (1536 SPF)
  61. Compression mode                         : Lossy
  62. Delay relative to video                  : 300 ms
  63. Stream size                              : 139 MiB (2%)
  64. Language                                 : Chinese
  65. Service kind                             : Complete Main
  66. Default                                  : No
  67. Forced                                   : No
  68. Text #1
  69. ID                                       : 4
  70. Format                                   : PGS
  71. Muxing mode                              : zlib
  72. Codec ID                                 : S_HDMV/PGS
  73. Codec ID/Info                            : Picture based subtitle format used on BDs/HD-DVDs
  74. Duration                                 : 1 h 37 min
  75. Bit rate                                 : 14.6 kb/s
  76. Count of elements                        : 2652
  77. Stream size                              : 10.1 MiB (0%)
  78. Language                                 : English
  79. Default                                  : Yes
  80. Forced                                   : No
  81. Text #2
  82. ID                                       : 5
  83. Format                                   : PGS
  84. Muxing mode                              : zlib
  85. Codec ID                                 : S_HDMV/PGS
  86. Codec ID/Info                            : Picture based subtitle format used on BDs/HD-DVDs
  87. Duration                                 : 1 h 37 min
  88. Bit rate                                 : 18.5 kb/s
  89. Count of elements                        : 2731
  90. Stream size                              : 12.8 MiB (0%)
  91. Language                                 : Chinese
  92. Default                                  : No
  93. Forced                                   : No
  94. Text #3
  95. ID                                       : 6
  96. Format                                   : PGS
  97. Muxing mode                              : zlib
  98. Codec ID                                 : S_HDMV/PGS
  99. Codec ID/Info                            : Picture based subtitle format used on BDs/HD-DVDs
  100. Duration                                 : 1 h 37 min
  101. Bit rate                                 : 19.6 kb/s
  102. Count of elements                        : 2731
  103. Stream size                              : 13.6 MiB (0%)
  104. Language                                 : Chinese
  105. Default                                  : No
  106. Forced                                   : No
  107. Menu
  108. 00:00:00.000                             : en:Chapter 01
  109. 00:07:26.863                             : en:Chapter 02
  110. 00:14:12.935                             : en:Chapter 03
  111. 00:18:17.221                             : en:Chapter 04
  112. 00:24:30.385                             : en:Chapter 05
  113. 00:30:43.341                             : en:Chapter 06
  114. 00:34:32.653                             : en:Chapter 07
  115. 00:41:00.624                             : en:Chapter 08
  116. 00:45:54.501                             : en:Chapter 09
  117. 00:52:39.823                             : en:Chapter 10
  118. 00:59:21.182                             : en:Chapter 11
  119. 01:06:08.047                             : en:Chapter 12
  120. 01:14:55.491                             : en:Chapter 13
  121. 01:19:59.169                             : en:Chapter 14
  122. 01:24:11.087                             : en:Chapter 15
  123. 01:32:13.611                             : en:Chapter 16
复制代码




磁力链:
  • magnet:?xt=urn:btih:0DDBB69B1B56CEF651B2D4E39CD83565E1A22B18
上传的附件:
BT9527电影天堂 1、BT9527电影天堂提供的BT文件均来源于互联网抓取,只供网友学习交流、技术提升使用。
2、我们遵守BitTorrent点对点协议原则,任何版权问题请联系原资源发布商,我们不处理任何版权纠纷,谢谢!如有争议请联系邮箱:BT9527#hotmail.com(#换成@)
3、如果您发现某页面或地址有错误,请联系站长邮箱BT9527#hotmail.com(#换成@),我们会尽快处理。您的热心是对BT9527电影天堂最大的支持。
4、本站建议去正规影院观看电影以支持电影行业发展。
最新回复 (0)

你可以在 登录 or 注册 后,对此帖发表评论!

返回
发新帖