借着雨点说爱你[国日多音轨/中英字幕].Be.With.You.2004.BluRay.1080p.x265.10bit.2Audio-MiniHD 6.33GB

版主小s 1月前 278



◎译  名 借着雨点说爱你 / 现在,很想见你(台) / 大约在雨季 / 爱的轮回 / Be with You
◎片  名 いま、会いにゆきます
◎年  代 2004
◎产  地 日本
◎类  别 剧情 / 爱情 / 奇幻
◎语  言 日语
◎上映日期 2004-10-30(日本)
◎IMDb链接 https://www.imdb.com/title/tt0442268/
◎豆瓣评分 8.5/10 (35170人评价)
◎豆瓣链接 https://movie.douban.com/subject/1395080/
◎片  长 119分钟
◎导  演 土井裕泰 Nobuhiro Doi (id:1001640)
◎编  剧 冈田惠和 Yoshikazu Okada (id:1317682)
       市川拓司 Takuji Ichikawa (id:1390084)
◎演  员 竹内结子 Y?ko Takeuchi (id:1151757)
       中村狮童 Shido Nakamura (id:1050014)
       武井证 Akashi Takei (id:1313936)
       大塚千弘 Chihiro ?tsuka (id:1033978)
       浅利阳介 Asari Yousuke (id:1314563)
       平冈祐太 Y?ta Hiraoka (id:1051144)
       市川实日子 Mikako Ichikawa (id:1019576)
       中村贺津雄 Katsuo Nakamura (id:1048674)
       小日向文世 Fumiyo Kohinata (id:1009219)
       江原由希子 YOU (id:1223702)
       松尾铃木 Suzuki Matsuo (id:1037741)
       森田正光 Masamitsu Morita (id:1392132)
       美山加恋 Karen Miyama (id:1038600)
       冈田浩晖 K?ki Okada (id:1324446)
       田中圭 Kei Tanaka (id:1011150)
       滨名一哉 Kazuya Hamana (id:1443606)
       柴主高秀 Takahide Shibanushi (id:1297447)
       种田阳平 Yohei Taneda (id:1298897)

◎简  介
  秋穗巧(中村狮童饰)的妻子槚田泠(竹内结子饰)一年前去世,便和6岁的儿子佑司(武开证饰)过着相依为命的日子。妻子临终前跟他们说,翌年的雨季便会跟着雨点回来看他们。儿子深信母亲会在这个时候回来他们的身边,虽然秋穗巧知道这是一件很荒唐的事,却不忍心向儿子说。                                    
                                雨季如期而至,父子竟然真的迎来了“重生”的泠,泠虽然失去了所有的记忆,就连自己的身份都不清楚,但她还是像以前一样无微不至的照顾父子俩。可雨不能总是下,雨季也有了结束的一天……

◎获奖情况 (共2项)
  第25届香港电影金像奖 (2006)
  最佳亚洲电影(提名)

  第28届日本电影学院奖 (2005)
  最佳女主角(提名)
   └──竹内结子 (id:1151757)

  1. ##### MediaInfo ######
  2. General
  3. Unique ID                                : 237475915606405054755359771840865875668 (0xB2A8329C0E293CDDB8B1F3E68DABB6D4)
  4. Complete name                            : Be.With.You.2004.BluRay.1080p.x265.10bit.2Audio-MiniHD.mkv
  5. Format                                   : Matroska
  6. Format version                           : Version 4
  7. File size                                : 6.33 GiB
  8. Duration                                 : 1 h 58 min
  9. Overall bit rate                         : 7 626 kb/s
  10. Encoded date                             : UTC 2017-06-09 07:13:07
  11. Writing application                      : mkvmerge v11.0.0 ('Alive') 64bit
  12. Writing library                          : libebml v1.3.4 + libmatroska v1.4.5
  13. Video
  14. ID                                       : 1
  15. Format                                   : HEVC
  16. Format/Info                              : High Efficiency Video Coding
  17. Codec ID                                 : V_MPEGH/ISO/HEVC
  18. Duration                                 : 1 h 58 min
  19. Bit rate                                 : 6 642 kb/s
  20. Width                                    : 1 920 pixels
  21. Height                                   : 1 036 pixels
  22. Display aspect ratio                     : 1.85:1
  23. Frame rate mode                          : Constant
  24. Frame rate                               : 23.976 (24000/1001/53354) FPS
  25. Bits/(Pixel*Frame)                       : 0.139
  26. Stream size                              : 5.51 GiB (87%)
  27. Default                                  : Yes
  28. Forced                                   : No
  29. Audio #1
  30. ID                                       : 2
  31. Format                                   : AC-3
  32. Format/Info                              : Audio Coding 3
  33. Commercial name                          : Dolby Digital
  34. Codec ID                                 : A_AC3
  35. Duration                                 : 1 h 58 min
  36. Bit rate mode                            : Constant
  37. Bit rate                                 : 640 kb/s
  38. Channel(s)                               : 6 channels
  39. Channel layout                           : L R C LFE Ls Rs
  40. Sampling rate                            : 48.0 kHz
  41. Frame rate                               : 31.250 FPS (1536 SPF)
  42. Compression mode                         : Lossy
  43. Stream size                              : 544 MiB (8%)
  44. Language                                 : Japanese
  45. Service kind                             : Complete Main
  46. Default                                  : Yes
  47. Forced                                   : No
  48. Audio #2
  49. ID                                       : 3
  50. Format                                   : AC-3
  51. Format/Info                              : Audio Coding 3
  52. Commercial name                          : Dolby Digital
  53. Codec ID                                 : A_AC3
  54. Duration                                 : 1 h 58 min
  55. Bit rate mode                            : Constant
  56. Bit rate                                 : 192 kb/s
  57. Channel(s)                               : 2 channels
  58. Channel layout                           : L R
  59. Sampling rate                            : 48.0 kHz
  60. Frame rate                               : 31.250 FPS (1536 SPF)
  61. Compression mode                         : Lossy
  62. Stream size                              : 163 MiB (3%)
  63. Language                                 : Chinese
  64. Service kind                             : Complete Main
  65. Default                                  : No
  66. Forced                                   : No
  67. Text #1
  68. ID                                       : 4
  69. Format                                   : PGS
  70. Muxing mode                              : zlib
  71. Codec ID                                 : S_HDMV/PGS
  72. Codec ID/Info                            : Picture based subtitle format used on BDs/HD-DVDs
  73. Language                                 : Japanese
  74. Default                                  : Yes
  75. Forced                                   : No
  76. Text #2
  77. ID                                       : 5
  78. Format                                   : PGS
  79. Muxing mode                              : zlib
  80. Codec ID                                 : S_HDMV/PGS
  81. Codec ID/Info                            : Picture based subtitle format used on BDs/HD-DVDs
  82. Language                                 : Chinese
  83. Default                                  : No
  84. Forced                                   : No
  85. Text #3
  86. ID                                       : 6
  87. Format                                   : PGS
  88. Muxing mode                              : zlib
  89. Codec ID                                 : S_HDMV/PGS
  90. Codec ID/Info                            : Picture based subtitle format used on BDs/HD-DVDs
  91. Language                                 : Chinese
  92. Default                                  : No
  93. Forced                                   : No
  94. Text #4
  95. ID                                       : 7
  96. Format                                   : PGS
  97. Muxing mode                              : zlib
  98. Codec ID                                 : S_HDMV/PGS
  99. Codec ID/Info                            : Picture based subtitle format used on BDs/HD-DVDs
  100. Language                                 : English
  101. Default                                  : No
  102. Forced                                   : No
  103. Menu
  104. 00:00:00.000                             : en:Chapter 01
  105. 00:03:50.230                             : en:Chapter 02
  106. 00:10:00.182                             : en:Chapter 03
  107. 00:16:03.921                             : en:Chapter 04
  108. 00:21:32.541                             : en:Chapter 05
  109. 00:31:09.284                             : en:Chapter 06
  110. 00:39:07.094                             : en:Chapter 07
  111. 00:49:57.577                             : en:Chapter 08
  112. 00:53:39.090                             : en:Chapter 09
  113. 00:58:50.068                             : en:Chapter 10
  114. 01:11:35.791                             : en:Chapter 11
  115. 01:14:50.652                             : en:Chapter 12
  116. 01:27:07.639                             : en:Chapter 13
  117. 01:37:42.481                             : en:Chapter 14
  118. 01:48:57.989                             : en:Chapter 15
  119. 01:54:16.266                             : en:Chapter 16
复制代码




TAGS 奇幻 剧情 爱情 /

磁力链:
  • magnet:?xt=urn:btih:650D11D9065268B2BDF9F2B572F48A2F072FAE10
上传的附件:
BT9527电影天堂 1、BT9527电影天堂提供的BT文件均来源于互联网抓取,只供网友学习交流、技术提升使用。
2、我们遵守BitTorrent点对点协议原则,任何版权问题请联系原资源发布商,我们不处理任何版权纠纷,谢谢!如有争议请联系邮箱:BT9527#hotmail.com(#换成@)
3、如果您发现某页面或地址有错误,请联系站长邮箱BT9527#hotmail.com(#换成@),我们会尽快处理。您的热心是对BT9527电影天堂最大的支持。
4、本站建议去正规影院观看电影以支持电影行业发展。
最新回复 (0)

你可以在 登录 or 注册 后,对此帖发表评论!

返回