倚天屠龙记之魔教教主[国语音轨/中英字幕].The.Kung.Fu.Cult.Master.1993.BluRay.1080p.x265.10bit.2Audio-MiniHD 5.06GB

版主小s 4月前 296



◎译  名 倚天屠龙记之魔教教主 / Kung Fu Cult Master
◎片  名 倚天屠龍記之魔教教主
◎年  代 1993
◎产  地 中国香港 / 中国大陆
◎类  别 动作 / 奇幻 / 武侠 / 古装
◎语  言 粤语 / 汉语普通话
◎上映日期 1993-12-18(中国香港)
◎IMDb链接 https://www.imdb.com/title/tt0108624/
◎豆瓣评分 7.9/10 (169427人评价)
◎豆瓣链接 https://movie.douban.com/subject/1299059/
◎片  长 99分钟
◎导  演 王晶 Jing Wong (id:1274331)
◎编  剧 王晶 Jing Wong (id:1274331)
       金庸 Louis Cha (id:1019677)
◎演  员 李连杰 Jet Li (id:1025146)
       张敏 Sharla Cheung (id:1005297)
       邱淑贞 Chingmy Yau (id:1048296)
       黎姿 Gigi Lai (id:1028208)
       洪金宝 Sammo Hung Kam-Bo (id:1055887)
       吴镇宇 Francis Ng (id:1037098)
       吴耀汉 Richard Ng (id:1037408)
       曹荣 Wing Cho  (id:1315226)
       闫怀礼 Huaili Yan (id:1024922)
       梁家仁 Ka-Yan Leung (id:1008125)
       邹兆龙 Collin Chou (id:1022821)
       田启文 Kai Man Tin (id:1315882)
       张春仲 Chunzhong Zhang (id:1318275)
       姬麒麟 Qilin Ji (id:1274783)
       程东 John Ching Tung (id:1316720)
       孙梦泉 Mengquan Sun (id:1312710)
       刘大刚 Dagang Liu (id:1322790)
       马子俊 Zijun Ma  (id:1317707)
       于彦凯 Yankai Yu (id:1327216)
       张续晟 Xucheng Zhang (id:1378638)
       蔡坚成 Kin-Shing Choi (id:1382581)
       邹义训 Yixun Chow (id:1426899)
       姜小亮  (id:1470457)
       韩冬青  (id:1470910)
       李连杰 Jet Li (id:1025146)
       王晶 Jing Wong (id:1274331)
       田启文 Kai Man Tin (id:1315882)
       顾嘉辉 Joseph Koo (id:1017256)
       黄仲标 Bill Wong (id:1301175)
       仇小梅 Siu-Mui Chau (id:1280537)
       曹荣 Wing Cho  (id:1315226)
       萧德虎 Siu Tak-Foo (id:1426021)

◎简  介
  张翠山(吴镇宇 饰)携妻及子张无忌(李连杰 饰)从孤岛出发赶去给其师父贺百岁大寿的途中,被人暗算,张无忌中寒冰掌。在武当山,张翠山和妻子被各大门派逼迫致死,张无忌也不再能练习武功,只能靠张三丰每日所输真气得以残活。张三丰的举动引来宋青书(邹兆龙 饰)的妒忌,他联合了峨眉女弟子周芷若(黎姿 饰)共同对付张无 忌。明教圣女小昭(邱淑贞 饰)令张无忌改变命运,使其先在断崖上遇到高人治好体内寒冰毒、学会九成“九阳神功”,又在明教禁地练得“乾坤大挪移心法”。得知蒙古郡主赵敏(张敏 饰)设计令江湖六大派围攻光明顶想歼灭明教时,张无忌决意为拯救明教赴汤蹈火。

  1. ##### MediaInfo ######
  2. General
  3. Unique ID                                : 238574938096540923334037274804399389883 (0xB37BDC9A1401611CBA886DBBDEA43CBB)
  4. Complete name                            : The.Kung.Fu.Cult.Master.1993.BluRay.1080p.x265.10bit.2Audio-MiniHD.mkv
  5. Format                                   : Matroska
  6. Format version                           : Version 4
  7. File size                                : 5.05 GiB
  8. Duration                                 : 1 h 40 min
  9. Overall bit rate                         : 7 167 kb/s
  10. Encoded date                             : UTC 2017-06-23 10:55:21
  11. Writing application                      : mkvmerge v11.0.0 ('Alive') 64bit
  12. Writing library                          : libebml v1.3.4 + libmatroska v1.4.5
  13. Video
  14. ID                                       : 1
  15. Format                                   : HEVC
  16. Format/Info                              : High Efficiency Video Coding
  17. Codec ID                                 : V_MPEGH/ISO/HEVC
  18. Duration                                 : 1 h 40 min
  19. Bit rate                                 : 6 064 kb/s
  20. Width                                    : 1 920 pixels
  21. Height                                   : 1 080 pixels
  22. Display aspect ratio                     : 16:9
  23. Frame rate mode                          : Constant
  24. Frame rate                               : 24.000 FPS
  25. Bits/(Pixel*Frame)                       : 0.122
  26. Stream size                              : 4.27 GiB (85%)
  27. Default                                  : Yes
  28. Forced                                   : No
  29. Audio #1
  30. ID                                       : 2
  31. Format                                   : AC-3
  32. Format/Info                              : Audio Coding 3
  33. Commercial name                          : Dolby Digital
  34. Codec ID                                 : A_AC3
  35. Duration                                 : 1 h 40 min
  36. Bit rate mode                            : Constant
  37. Bit rate                                 : 320 kb/s
  38. Channel(s)                               : 2 channels
  39. Channel layout                           : L R
  40. Sampling rate                            : 48.0 kHz
  41. Frame rate                               : 31.250 FPS (1536 SPF)
  42. Compression mode                         : Lossy
  43. Stream size                              : 231 MiB (4%)
  44. Language                                 : Chinese
  45. Service kind                             : Complete Main
  46. Default                                  : Yes
  47. Forced                                   : No
  48. Audio #2
  49. ID                                       : 3
  50. Format                                   : AC-3
  51. Format/Info                              : Audio Coding 3
  52. Commercial name                          : Dolby Digital
  53. Codec ID                                 : A_AC3
  54. Duration                                 : 1 h 40 min
  55. Bit rate mode                            : Constant
  56. Bit rate                                 : 640 kb/s
  57. Channel(s)                               : 6 channels
  58. Channel layout                           : L R C LFE Ls Rs
  59. Sampling rate                            : 48.0 kHz
  60. Frame rate                               : 31.250 FPS (1536 SPF)
  61. Compression mode                         : Lossy
  62. Stream size                              : 462 MiB (9%)
  63. Language                                 : Chinese
  64. Service kind                             : Complete Main
  65. Default                                  : No
  66. Forced                                   : No
  67. Text #1
  68. ID                                       : 4
  69. Format                                   : PGS
  70. Muxing mode                              : zlib
  71. Codec ID                                 : S_HDMV/PGS
  72. Codec ID/Info                            : Picture based subtitle format used on BDs/HD-DVDs
  73. Language                                 : Chinese
  74. Default                                  : Yes
  75. Forced                                   : No
  76. Text #2
  77. ID                                       : 5
  78. Format                                   : PGS
  79. Muxing mode                              : zlib
  80. Codec ID                                 : S_HDMV/PGS
  81. Codec ID/Info                            : Picture based subtitle format used on BDs/HD-DVDs
  82. Language                                 : English
  83. Default                                  : No
  84. Forced                                   : No
  85. Menu
  86. 00:00:00.000                             : en:Chapter 01
  87. 00:05:06.416                             : en:Chapter 02
  88. 00:09:21.416                             : en:Chapter 03
  89. 00:15:58.416                             : en:Chapter 04
  90. 00:20:02.333                             : en:Chapter 05
  91. 00:26:08.416                             : en:Chapter 06
  92. 00:31:12.833                             : en:Chapter 07
  93. 00:35:12.041                             : en:Chapter 08
  94. 00:40:24.083                             : en:Chapter 09
  95. 00:45:13.000                             : en:Chapter 10
  96. 00:50:23.416                             : en:Chapter 11
  97. 00:55:38.000                             : en:Chapter 12
  98. 01:00:11.416                             : en:Chapter 13
  99. 01:05:22.166                             : en:Chapter 14
  100. 01:10:43.083                             : en:Chapter 15
  101. 01:15:02.416                             : en:Chapter 16
  102. 01:20:28.250                             : en:Chapter 17
  103. 01:27:04.000                             : en:Chapter 18
  104. 01:31:52.000                             : en:Chapter 19
  105. 01:37:48.000                             : en:Chapter 20
复制代码




TAGS 武侠 动作 奇幻 古装 /

磁力链:
  • magnet:?xt=urn:btih:880C774ACF17C45DC02C760864AE268D224DB98F
上传的附件:
BT9527电影天堂 1、BT9527电影天堂提供的BT文件均来源于互联网抓取,只供网友学习交流、技术提升使用。
2、我们遵守BitTorrent点对点协议原则,任何版权问题请联系原资源发布商,我们不处理任何版权纠纷,谢谢!如有争议请联系邮箱:BT9527#hotmail.com(#换成@)
3、如果您发现某页面或地址有错误,请联系站长邮箱BT9527#hotmail.com(#换成@),我们会尽快处理。您的热心是对BT9527电影天堂最大的支持。
4、本站建议去正规影院观看电影以支持电影行业发展。
最新回复 (0)

你可以在 登录 or 注册 后,对此帖发表评论!

返回
发新帖