绿区[国英多音轨/中英字幕].Green.Zone.2010.BluRay.1080p.DTS-HD.MA.5.1.x265.10bit-CTRLHD 18.57GB

版主小s 1月前 162



◎译  名 绿区 / 关键指令 / 叛逆谍战 / 绿色地带
◎片  名 Green Zone
◎年  代 2010
◎产  地 美国 / 法国 / 西班牙 / 英国
◎类  别 剧情 / 动作 / 惊悚 / 战争
◎语  言 英语 / 阿拉伯语
◎上映日期 2010-03-12(美国)
◎IMDb链接 https://www.imdb.com/title/tt0947810/
◎豆瓣评分 7.3/10 (29817人评价)
◎豆瓣链接 https://movie.douban.com/subject/2131649/
◎片  长 115 分钟
◎导  演 保罗·格林格拉斯 Paul Greengrass (id:1025193)
◎编  剧 布莱恩·海尔格兰德 Brian Helgeland (id:1013980)
◎演  员 马特·达蒙 Matt Damon (id:1054443)
       格雷戈·金尼尔 Greg Kinnear (id:1019040)
       詹森·艾萨克 Jason Isaacs (id:1017916)
       布莱丹·格里森 Brendan Gleeson (id:1000078)
       艾米·莱安 Amy Ryan (id:1144124)
       赫立德·阿卜杜拉 Khalid Abdalla (id:1316003)
       毕扬·丹斯曼 Bijan Daneshmand (id:1308549)
       艾格尔·纳尔 Igal Naor (id:1292914)
        William Meredith (id:1249597)
        Robert Harrison O'Neil (id:1264024)
       艾莉克丝·摩尔 Alex Moore (id:1230026)
       Sean Huze Sean Huze (id:1216693)
       奥马尔·贝尔杜尼 Omar Berdouni (id:1185257)
       汤米·坎贝尔 Tommy Campbell (id:1169789)
       Troy Brown Troy Brown (id:1279463)
       Jerry Della Salla Jerry Della Salla (id:1084571)
        Brian VanRiper (id:1247759)
       Lloyd Levin Lloyd Levin (id:1289893)
       克里斯多福·劳斯 Christopher Rouse (id:1037279)
       埃里克·菲尔纳 Eric Fellner (id:1283560)
       保罗·格林格拉斯 Paul Greengrass (id:1025193)
       蒂姆·贝文 Tim Bevan (id:1278562)
       约翰·鲍威尔 John Powell (id:1050025)
       巴里·埃克劳德 Barry Ackroyd (id:1048323)
       克里斯多福·劳斯 Christopher Rouse (id:1037279)
       Amanda Mackey Johnson Amanda Mackey Johnson (id:1290650)
       Daniel Hubbard Daniel Hubbard (id:1055343)
       凯茜·桑德里奇 Cathy Sandrich (id:1296638)
         Dominic Watkins (id:1462093)
       Juan Pedro De Gaspar Juan Pedro De Gaspar (id:1302955)
       萨米·谢尔顿 Sammy Sheldon (id:1286999)
       Tricia Cameron Tricia Cameron (id:1276507)
       Helen Barrett Helen Barrett (id:1277976)
       朱莉·达特尼尔 Julie Dartnell (id:1281824)
       凯·乔治奥 Kay Georgiou (id:1284721)
       洛丽雅·谢泼德 Loulia Sheppard (id:1297417)
       Yann Mari Faget Yann Mari Faget (id:1083715)
       丹·布莱德利 Dan Bradley (id:1279145)
       Carlos Gil Carlos Gil (id:1094312)
       William Dodds William Dodds (id:1054710)
       马特·福斯特 Matt Foster (id:1242745)
       Julian Gnass Julian Gnass (id:1093276)
       皮特·汉森 Pete Hanson (id:1102387)
       彼得·江 Peter Chiang (id:1280640)
       吉姆·斯帝尔 Jim Steel (id:1196446)
        Noel Hocquet (id:1219373)
        Howard Berry (id:1224776)
        John Palmer (id:1228970)
        Peter Olliff (id:1232436)
        András Sz?cs (id:1233289)
        Chris Ung (id:1253591)
        Shane Aherne (id:1237110)
        Timothy P. Jones (id:1242640)
       Paul Brannan Paul Brannan (id:1070657)
       肖恩·斯特兰克斯 Sean Stranks (id:1305336)
       Romain Arnoux Romain Arnoux (id:1021644)
       大卫·维克里 David Vickery (id:1312539)
       Ian Differ Ian Differ (id:1034491)
        Szvák Antal (id:1235296)
       Chris Thomas Chris Thomas (id:1306620)
       查理·诺伯 Charlie Noble (id:1293216)
       Jolene McCaffrey Jolene McCaffrey (id:1302479)

◎简  介
  2003年,伊拉克战争爆发。萨达姆政府受到重创,大规模杀伤性武器(WMD)成为美国出兵伊拉克的有力借口。罗伊·米勒(马特·戴蒙 Matt Damon 饰)所率领的小分队奉命在伊拉克境内寻找WMD,然而无数次的搜寻皆无所获,这令米勒对线报的来源心生疑惑。某次行动中,他遇到当地的独腿男子法哈迪,从对方口中米勒得知一众伊拉克关键人物正在某地集会,行动中意外发现扑克牌通缉令上的艾尔·拉威(Yigal Naor 饰)也在其中,而艾尔·拉威似乎和美国政府有着错综复杂的关系。米勒不顾劝阻展开独立调查,发现所谓的WMD不过是包藏了无数丑恶真相的谎言而已……                                    
                                本片根据《华盛顿邮报》驻巴格达记者拉吉夫·产德拉斯卡兰(Rajiv Chandrasekaran)的作品《翡翠城的帝王生活:伊拉克绿色地带深处》改编。

◎获奖情况 (共1项)
  第12届美国青少年选择奖 (2010)
  最佳动作冒险电影男演员(提名)
   └──马特·达蒙 (id:1054443)

  1. ##### MediaInfo ######
  2. General
  3. Unique ID                                : 311838080545160487189757270049280596489 (0xEA99D46805123BEAD68C81B49D9D9A09)
  4. Complete name                            : Green.Zone.2010.BluRay.1080p.DTS-HD.MA.5.1.x265.10bit-CTRLHD.mkv
  5. Format                                   : Matroska
  6. Format version                           : Version 4
  7. File size                                : 18.6 GiB
  8. Duration                                 : 1 h 54 min
  9. Overall bit rate mode                    : Variable
  10. Overall bit rate                         : 23.2 Mb/s
  11. Encoded date                             : UTC 2022-05-27 14:43:58
  12. Writing application                      : mkvmerge v68.0.0 ('The Curtain') 64-bit
  13. Writing library                          : libebml v1.4.2 + libmatroska v1.6.4
  14. Video
  15. ID                                       : 1
  16. Format                                   : HEVC
  17. Format/Info                              : High Efficiency Video Coding
  18. Format profile                           : Main 10@L5.1@High
  19. Codec ID                                 : V_MPEGH/ISO/HEVC
  20. Duration                                 : 1 h 54 min
  21. Bit rate                                 : 10.8 Mb/s
  22. Width                                    : 1 920 pixels
  23. Height                                   : 800 pixels
  24. Display aspect ratio                     : 2.40:1
  25. Frame rate mode                          : Constant
  26. Frame rate                               : 23.976 (24000/1001/53354) FPS
  27. Color space                              : YUV
  28. Chroma subsampling                       : 4:2:0 (Type 2)
  29. Bit depth                                : 10 bits
  30. Bits/(Pixel*Frame)                       : 0.293
  31. Stream size                              : 8.64 GiB (47%)
  32. Writing library                          : x265 3.5+20-17839cc0d:[Windows][GCC 11.2.0][64 bit] 10bit
  33. Encoding settings                        : cpuid=533541111039 / frame-threads=5 / numa-pools=32 / wpp / no-pmode / no-pme / no-psnr / no-ssim / log-level=2 / input-csp=1 / input-res=1920x800 / interlace=0 / total-frames=165108 / level-idc=51 / high-tier=1 / uhd-bd=0 / ref=6 / no-allow-non-conformance / no-repeat-headers / annexb / no-aud / no-eob / no-eos / no-hrd / info / hash=0 / no-temporal-layers / no-open-gop / min-keyint=23 / keyint=250 / gop-lookahead=0 / bframes=14 / b-adapt=2 / b-pyramid / bframe-bias=0 / rc-lookahead=75 / lookahead-slices=5 / NTMzNTQ=uuDQuD2mJt9fsCf / scenecut=40 / no-hist-scenecut / radl=0 / no-splice / no-intra-refresh / ctu=32 / min-cu-size=8 / no-rect / no-amp / max-tu-size=32 / tu-inter-depth=1 / tu-intra-depth=1 / limit-tu=0 / rdoq-level=0 / dynamic-rd=0.00 / no-ssim-rd / signhide / no-tskip / nr-intra=0 / nr-inter=0 / no-constrained-intra / no-strong-intra-smoothing / max-merge=3 / limit-refs=1 / no-limit-modes / me=3 / subme=7 / merange=48 / temporal-mvp / no-frame-dup / hme / Level / merange / L0,L1,L2=24,36,48 / weightp / weightb / no-analyze-src-pics / deblock=0:0 / sao / no-sao-non-deblock / rd=4 / selective-sao=4 / early-skip / rskip / no-fast-intra / no-tskip-fast / no-cu-lossless / b-intra / no-splitrd-skip / rdpenalty=2 / psy-rd=2.00 / psy-rdoq=0.00 / no-rd-refine / no-lossless / cbqpoffs=0 / crqpoffs=0 / rc=crf / crf=16.0 / qcomp=0.60 / qpstep=4 / stats-write=0 / stats-read=0 / vbv-maxrate=160000 / vbv-bufsize=160000 / vbv-init=0.9 / min-vbv-fullness=50.0 / max-vbv-fullness=80.0 / crf-max=0.0 / crf-min=0.0 / ipratio=1.40 / pbratio=1.30 / aq-mode=1 / aq-strength=1.00 / cutree / zone-count=0 / no-strict-cbr / qg-size=32 / no-rc-grain / qpmax=69 / qpmin=0 / no-const-vbv / sar=0 / overscan=0 / videoformat=5 / range=0 / colorprim=1 / transfer=1 / colormatrix=1 / chromaloc=1 / chromaloc-top=2 / chromaloc-bottom=2 / display-window=0 / cll=0,0 / min-luma=0 / max-luma=1023 / log2-max-poc-lsb=8 / vui-timing-info / vui-hrd-info / slices=1 / no-opt-qp-pps / no-opt-ref-list-length-pps / no-multi-pass-opt-rps / scenecut-bias=0.05 / hist-threshold=0.03 / no-opt-cu-delta-qp / aq-motion / no-hdr10 / no-hdr10-opt / no-dhdr10-opt / no-idr-recovery-sei / analysis-reuse-level=0 / analysis-save-reuse-level=0 / analysis-load-reuse-level=0 / scale-factor=0 / refine-intra=0 / refine-inter=0 / refine-mv=1 / refine-ctu-distortion=0 / no-limit-sao / ctu-info=0 / no-lowpass-dct / refine-analysis-type=0 / copy-pic=1 / max-ausize-factor=1.0 / no-dynamic-refine / no-single-sei / no-hevc-aq / no-svt / no-field / qp-adaptation-range=1.00 / scenecut-aware-qp=0conformance-window-offsets / right=0 / bottom=0 / NTMzNTQ= / decoder-max-rate=0 / no-vbv-live-multi-pass
  34. Default                                  : Yes
  35. Forced                                   : No
  36. Color range                              : Limited
  37. Color primaries                          : BT.709
  38. Transfer characteristics                 : BT.709
  39. Matrix coefficients                      : BT.709
  40. Audio #1
  41. ID                                       : 2
  42. Format                                   : DTS XLL
  43. Format/Info                              : Digital Theater Systems
  44. Commercial name                          : DTS-HD Master Audio
  45. Codec ID                                 : A_DTS
  46. Duration                                 : 1 h 54 min
  47. Bit rate mode                            : Variable
  48. Bit rate                                 : 4 104 kb/s
  49. Channel(s)                               : 6 channels
  50. Channel layout                           : C L R Ls Rs LFE
  51. Sampling rate                            : 48.0 kHz
  52. Frame rate                               : 93.750 FPS (512 SPF)
  53. Bit depth                                : 24 bits
  54. Compression mode                         : Lossless
  55. Stream size                              : 3.29 GiB (18%)
  56. Language                                 : English
  57. Default                                  : Yes
  58. Forced                                   : No
  59. Audio #2
  60. ID                                       : 3
  61. Format                                   : DTS XLL
  62. Format/Info                              : Digital Theater Systems
  63. Commercial name                          : DTS-HD Master Audio
  64. Codec ID                                 : A_DTS
  65. Duration                                 : 1 h 54 min
  66. Bit rate mode                            : Variable
  67. Bit rate                                 : 4 041 kb/s
  68. Channel(s)                               : 6 channels
  69. Channel layout                           : C L R Ls Rs LFE
  70. Sampling rate                            : 48.0 kHz
  71. Frame rate                               : 93.750 FPS (512 SPF)
  72. Bit depth                                : 24 bits
  73. Compression mode                         : Lossless
  74. Stream size                              : 3.24 GiB (17%)
  75. Language                                 : Chinese
  76. Default                                  : Yes
  77. Forced                                   : No
  78. Audio #3
  79. ID                                       : 4
  80. Format                                   : DTS XLL
  81. Format/Info                              : Digital Theater Systems
  82. Commercial name                          : DTS-HD Master Audio
  83. Codec ID                                 : A_DTS
  84. Duration                                 : 1 h 54 min
  85. Bit rate mode                            : Variable
  86. Bit rate                                 : 3 977 kb/s
  87. Channel(s)                               : 6 channels
  88. Channel layout                           : C L R Ls Rs LFE
  89. Sampling rate                            : 48.0 kHz
  90. Frame rate                               : 93.750 FPS (512 SPF)
  91. Bit depth                                : 24 bits
  92. Compression mode                         : Lossless
  93. Stream size                              : 3.19 GiB (17%)
  94. Language                                 : Chinese
  95. Default                                  : Yes
  96. Forced                                   : No
  97. Text #1
  98. ID                                       : 5
  99. Format                                   : PGS
  100. Muxing mode                              : zlib
  101. Codec ID                                 : S_HDMV/PGS
  102. Codec ID/Info                            : Picture based subtitle format used on BDs/HD-DVDs
  103. Duration                                 : 1 h 42 min
  104. Bit rate                                 : 45.4 kb/s
  105. Count of elements                        : 2814
  106. Stream size                              : 33.3 MiB (0%)
  107. Language                                 : English
  108. Default                                  : Yes
  109. Forced                                   : No
  110. Text #2
  111. ID                                       : 6
  112. Format                                   : PGS
  113. Muxing mode                              : zlib
  114. Codec ID                                 : S_HDMV/PGS
  115. Codec ID/Info                            : Picture based subtitle format used on BDs/HD-DVDs
  116. Duration                                 : 1 h 46 min
  117. Bit rate                                 : 127 kb/s
  118. Count of elements                        : 5899
  119. Stream size                              : 96.7 MiB (1%)
  120. Language                                 : Chinese
  121. Default                                  : Yes
  122. Forced                                   : No
  123. Text #3
  124. ID                                       : 7
  125. Format                                   : PGS
  126. Muxing mode                              : zlib
  127. Codec ID                                 : S_HDMV/PGS
  128. Codec ID/Info                            : Picture based subtitle format used on BDs/HD-DVDs
  129. Duration                                 : 1 h 46 min
  130. Bit rate                                 : 127 kb/s
  131. Count of elements                        : 5899
  132. Stream size                              : 97.2 MiB (1%)
  133. Language                                 : Chinese
  134. Default                                  : Yes
  135. Forced                                   : No
  136. Text #4
  137. ID                                       : 8
  138. Format                                   : PGS
  139. Muxing mode                              : zlib
  140. Codec ID                                 : S_HDMV/PGS
  141. Codec ID/Info                            : Picture based subtitle format used on BDs/HD-DVDs
  142. Duration                                 : 1 h 46 min
  143. Bit rate                                 : 151 kb/s
  144. Count of elements                        : 5745
  145. Stream size                              : 116 MiB (1%)
  146. Language                                 : Chinese
  147. Default                                  : Yes
  148. Forced                                   : No
  149. Text #5
  150. ID                                       : 9
  151. Format                                   : PGS
  152. Muxing mode                              : zlib
  153. Codec ID                                 : S_HDMV/PGS
  154. Codec ID/Info                            : Picture based subtitle format used on BDs/HD-DVDs
  155. Duration                                 : 1 h 46 min
  156. Bit rate                                 : 152 kb/s
  157. Count of elements                        : 5745
  158. Stream size                              : 116 MiB (1%)
  159. Language                                 : Chinese
  160. Default                                  : Yes
  161. Forced                                   : No
  162. Menu
  163. 00:00:00.000                             : zh:第 01 章
  164. 00:02:46.458                             : zh:第 02 章
  165. 00:10:00.975                             : zh:第 03 章
  166. 00:16:36.370                             : zh:第 04 章
  167. 00:21:01.010                             : zh:第 05 章
  168. 00:25:39.872                             : zh:第 06 章
  169. 00:33:30.300                             : zh:第 07 章
  170. 00:40:27.508                             : zh:第 08 章
  171. 00:45:25.431                             : zh:第 09 章
  172. 00:50:59.223                             : zh:第 10 章
  173. 00:55:15.270                             : zh:第 11 章
  174. 01:00:21.284                             : zh:第 12 章
  175. 01:05:09.989                             : zh:第 13 章
  176. 01:11:02.508                             : zh:第 14 章
  177. 01:18:28.621                             : zh:第 15 章
  178. 01:22:58.265                             : zh:第 16 章
  179. 01:27:00.882                             : zh:第 17 章
  180. 01:34:39.716                             : zh:第 18 章
  181. 01:39:15.658                             : zh:第 19 章
  182. 01:44:58.626                             : zh:第 20 章
复制代码




TAGS 动作 剧情 惊悚 战争 /

磁力链:
  • magnet:?xt=urn:btih:B86A73219B274AB70EDBBFE9AB2D9C5852BC14E0
上传的附件:
BT9527电影天堂 1、BT9527电影天堂提供的BT文件均来源于互联网抓取,只供网友学习交流、技术提升使用。
2、我们遵守BitTorrent点对点协议原则,任何版权问题请联系原资源发布商,我们不处理任何版权纠纷,谢谢!如有争议请联系邮箱:BT9527#hotmail.com(#换成@)
3、如果您发现某页面或地址有错误,请联系站长邮箱BT9527#hotmail.com(#换成@),我们会尽快处理。您的热心是对BT9527电影天堂最大的支持。
4、本站建议去正规影院观看电影以支持电影行业发展。
最新回复 (0)

你可以在 登录 or 注册 后,对此帖发表评论!

返回
发新帖