救急[简繁英字幕].Emergency.2022.2160p.AMZN.WEB-DL.DDP.5.1.HDR.H.265-CTRLWEB 11.20GB

版主小s 1月前 132



◎译  名 救急 / 紧急状况
◎片  名 Emergency
◎年  代 2022
◎产  地 美国
◎类  别 剧情 / 喜剧
◎语  言 英语
◎上映日期 2022-01-20(圣丹斯电影节) / 2022-05-20(美国) / 2022-05-27(美国网络)
◎IMDb链接 https://www.imdb.com/title/tt13650600/
◎豆瓣链接 https://movie.douban.com/subject/35295181/
◎片  长 105分钟
◎导  演 凯瑞·威廉姆斯 Carey Williams (id:1468928)
◎编  剧 KD Davila KD Davila  (id:1469418)
◎演  员 RJ·赛勒 RJ Cyler (id:1350258)
       唐纳德·艾丽斯·沃特金斯 Donald Elise Watkins (id:1446017)
       塞巴斯蒂安·查孔 Sebastian Chacon (id:1434459)
       塞布丽娜·卡彭特 Sabrina Carpenter (id:1343823)
       麦迪·尼科尔斯 Maddie Nichols (id:1455912)
       小詹姆斯·希利 James Healy Jr. (id:1091655)
       查瑞蒂·塞万提斯 Charity Cervantes (id:1443023)
       凯西·亨德肖特 Casey Hendershot (id:1440519)
       约翰·塞纳迭姆博 John Cenatiempo (id:1074569)

◎简  介
  短片改编。                                    
                                Ready for a night of partying, a group of Black and Latino college students must weigh the pros and cons of calling the police when faced with an emergency.

◎获奖情况 (共2项)
  第38届圣丹斯电影节 (2022)
  评审团大奖 剧情片(提名)
   └──凯瑞·威廉姆斯 (id:1468928)
  沃尔多·斯科特编剧奖 剧情片

  1. ##### MediaInfo ######
  2. General
  3. Unique ID                                : 269185682962806389082881509825220617721 (0xCA8346D88D9F4B6571F92CDC1B72A5F9)
  4. Complete name                            : Emergency.2022.2160p.AMZN.WEB-DL.DDP.5.1.HDR.H.265-CTRLWEB.mkv
  5. Format                                   : Matroska
  6. Format version                           : Version 4
  7. File size                                : 11.2 GiB
  8. Duration                                 : 1 h 45 min
  9. Overall bit rate                         : 15.2 Mb/s
  10. Encoded date                             : UTC 2022-05-27 05:17:51
  11. Writing application                      : mkvmerge v65.0.0 ('Too Much') 64-bit
  12. Writing library                          : libebml v1.4.2 + libmatroska v1.6.4
  13. Video
  14. ID                                       : 1
  15. Format                                   : HEVC
  16. Format/Info                              : High Efficiency Video Coding
  17. Format profile                           : Main 10@L5@Main
  18. HDR format                               : SMPTE ST 2094 App 4, Version 1, HDR10+ Profile B compatible
  19. Codec ID                                 : V_MPEGH/ISO/HEVC
  20. Duration                                 : 1 h 45 min
  21. Bit rate                                 : 14.6 Mb/s
  22. Width                                    : 3 840 pixels
  23. Height                                   : 1 600 pixels
  24. Display aspect ratio                     : 2.40:1
  25. Frame rate mode                          : Constant
  26. Frame rate                               : 23.976 (24000/1001/53354) FPS
  27. Color space                              : YUV
  28. Chroma subsampling                       : 4:2:0
  29. Bit depth                                : 10 bits
  30. Bits/(Pixel*Frame)                       : 0.099
  31. Stream size                              : 10.7 GiB (96%)
  32. Language                                 : English
  33. Default                                  : Yes
  34. Forced                                   : No
  35. Color range                              : Limited
  36. Color primaries                          : BT.2020
  37. Transfer characteristics                 : PQ
  38. Matrix coefficients                      : BT.2020 non-constant
  39. Mastering display color primaries        : Display P3
  40. Mastering display luminance              : min: 0.0001 cd/m2, max: 1000 cd/m2
  41. Maximum Content Light Level              : 999 cd/m2
  42. Maximum Frame-Average Light Level        : 192 cd/m2
  43. Audio
  44. ID                                       : 2
  45. Format                                   : E-AC-3
  46. Format/Info                              : Enhanced AC-3
  47. Commercial name                          : Dolby Digital Plus
  48. Codec ID                                 : A_EAC3
  49. Duration                                 : 1 h 45 min
  50. Bit rate mode                            : Constant
  51. Bit rate                                 : 640 kb/s
  52. Channel(s)                               : 6 channels
  53. Channel layout                           : L R C LFE Ls Rs
  54. Sampling rate                            : 48.0 kHz
  55. Frame rate                               : 31.250 FPS (1536 SPF)
  56. Compression mode                         : Lossy
  57. Stream size                              : 482 MiB (4%)
  58. Language                                 : English
  59. Service kind                             : Complete Main
  60. Default                                  : Yes
  61. Forced                                   : No
  62. Text #1
  63. ID                                       : 3
  64. Format                                   : UTF-8
  65. Codec ID                                 : S_TEXT/UTF8
  66. Codec ID/Info                            : UTF-8 Plain Text
  67. Duration                                 : 1 h 43 min
  68. Bit rate                                 : 105 b/s
  69. Count of elements                        : 2408
  70. Stream size                              : 80.0 KiB (0%)
  71. Title                                    : SDH
  72. Language                                 : English
  73. Default                                  : No
  74. Forced                                   : No
  75. Text #2
  76. ID                                       : 4
  77. Format                                   : UTF-8
  78. Codec ID                                 : S_TEXT/UTF8
  79. Codec ID/Info                            : UTF-8 Plain Text
  80. Duration                                 : 1 h 43 min
  81. Bit rate                                 : 103 b/s
  82. Count of elements                        : 1652
  83. Stream size                              : 78.6 KiB (0%)
  84. Title                                    : world
  85. Language                                 : Arabic
  86. Default                                  : No
  87. Forced                                   : No
  88. Text #3
  89. ID                                       : 5
  90. Format                                   : UTF-8
  91. Codec ID                                 : S_TEXT/UTF8
  92. Codec ID/Info                            : UTF-8 Plain Text
  93. Duration                                 : 1 h 43 min
  94. Bit rate                                 : 60 b/s
  95. Count of elements                        : 1646
  96. Stream size                              : 45.9 KiB (0%)
  97. Title                                    : Czechia
  98. Language                                 : Czech
  99. Default                                  : No
  100. Forced                                   : No
  101. Text #4
  102. ID                                       : 6
  103. Format                                   : UTF-8
  104. Codec ID                                 : S_TEXT/UTF8
  105. Codec ID/Info                            : UTF-8 Plain Text
  106. Duration                                 : 1 h 43 min
  107. Bit rate                                 : 60 b/s
  108. Count of elements                        : 1638
  109. Stream size                              : 45.7 KiB (0%)
  110. Title                                    : Denmark
  111. Language                                 : Danish
  112. Default                                  : No
  113. Forced                                   : No
  114. Text #5
  115. ID                                       : 7
  116. Format                                   : UTF-8
  117. Codec ID                                 : S_TEXT/UTF8
  118. Codec ID/Info                            : UTF-8 Plain Text
  119. Duration                                 : 1 h 43 min
  120. Bit rate                                 : 60 b/s
  121. Count of elements                        : 1641
  122. Stream size                              : 46.3 KiB (0%)
  123. Language                                 : German
  124. Default                                  : No
  125. Forced                                   : No
  126. Text #6
  127. ID                                       : 8
  128. Format                                   : UTF-8
  129. Codec ID                                 : S_TEXT/UTF8
  130. Codec ID/Info                            : UTF-8 Plain Text
  131. Duration                                 : 1 h 43 min
  132. Bit rate                                 : 110 b/s
  133. Count of elements                        : 1648
  134. Stream size                              : 84.0 KiB (0%)
  135. Title                                    : Greece
  136. Language                                 : Greek
  137. Default                                  : No
  138. Forced                                   : No
  139. Text #7
  140. ID                                       : 9
  141. Format                                   : UTF-8
  142. Codec ID                                 : S_TEXT/UTF8
  143. Codec ID/Info                            : UTF-8 Plain Text
  144. Duration                                 : 1 h 43 min
  145. Bit rate                                 : 62 b/s
  146. Count of elements                        : 1646
  147. Stream size                              : 47.1 KiB (0%)
  148. Title                                    : Latin America
  149. Language                                 : Spanish
  150. Default                                  : No
  151. Forced                                   : No
  152. Text #8
  153. ID                                       : 10
  154. Format                                   : UTF-8
  155. Codec ID                                 : S_TEXT/UTF8
  156. Codec ID/Info                            : UTF-8 Plain Text
  157. Duration                                 : 1 h 43 min
  158. Bit rate                                 : 57 b/s
  159. Count of elements                        : 1645
  160. Stream size                              : 43.9 KiB (0%)
  161. Language                                 : Spanish
  162. Default                                  : No
  163. Forced                                   : No
  164. Text #9
  165. ID                                       : 11
  166. Format                                   : UTF-8
  167. Codec ID                                 : S_TEXT/UTF8
  168. Codec ID/Info                            : UTF-8 Plain Text
  169. Duration                                 : 1 h 43 min
  170. Bit rate                                 : 53 b/s
  171. Count of elements                        : 1630
  172. Stream size                              : 41.0 KiB (0%)
  173. Language                                 : Finnish
  174. Default                                  : No
  175. Forced                                   : No
  176. Text #10
  177. ID                                       : 12
  178. Format                                   : UTF-8
  179. Codec ID                                 : S_TEXT/UTF8
  180. Codec ID/Info                            : UTF-8 Plain Text
  181. Duration                                 : 1 h 43 min
  182. Bit rate                                 : 61 b/s
  183. Count of elements                        : 1626
  184. Stream size                              : 47.0 KiB (0%)
  185. Title                                    : Philippines
  186. Language                                 : fil
  187. Default                                  : No
  188. Forced                                   : No
  189. Text #11
  190. ID                                       : 13
  191. Format                                   : UTF-8
  192. Codec ID                                 : S_TEXT/UTF8
  193. Codec ID/Info                            : UTF-8 Plain Text
  194. Duration                                 : 1 h 43 min
  195. Bit rate                                 : 60 b/s
  196. Count of elements                        : 1635
  197. Stream size                              : 45.6 KiB (0%)
  198. Language                                 : French
  199. Default                                  : No
  200. Forced                                   : No
  201. Text #12
  202. ID                                       : 14
  203. Format                                   : UTF-8
  204. Codec ID                                 : S_TEXT/UTF8
  205. Codec ID/Info                            : UTF-8 Plain Text
  206. Duration                                 : 1 h 43 min
  207. Bit rate                                 : 103 b/s
  208. Count of elements                        : 1652
  209. Stream size                              : 78.7 KiB (0%)
  210. Title                                    : Israel
  211. Language                                 : Hebrew
  212. Default                                  : No
  213. Forced                                   : No
  214. Text #13
  215. ID                                       : 15
  216. Format                                   : UTF-8
  217. Codec ID                                 : S_TEXT/UTF8
  218. Codec ID/Info                            : UTF-8 Plain Text
  219. Duration                                 : 1 h 43 min
  220. Bit rate                                 : 150 b/s
  221. Count of elements                        : 1652
  222. Stream size                              : 115 KiB (0%)
  223. Title                                    : India
  224. Language                                 : Hindi
  225. Default                                  : No
  226. Forced                                   : No
  227. Text #14
  228. ID                                       : 16
  229. Format                                   : UTF-8
  230. Codec ID                                 : S_TEXT/UTF8
  231. Codec ID/Info                            : UTF-8 Plain Text
  232. Duration                                 : 1 h 43 min
  233. Bit rate                                 : 62 b/s
  234. Count of elements                        : 1644
  235. Stream size                              : 47.4 KiB (0%)
  236. Language                                 : Hungarian
  237. Default                                  : No
  238. Forced                                   : No
  239. Text #15
  240. ID                                       : 17
  241. Format                                   : UTF-8
  242. Codec ID                                 : S_TEXT/UTF8
  243. Codec ID/Info                            : UTF-8 Plain Text
  244. Duration                                 : 1 h 43 min
  245. Bit rate                                 : 60 b/s
  246. Count of elements                        : 1649
  247. Stream size                              : 46.1 KiB (0%)
  248. Language                                 : Indonesian
  249. Default                                  : No
  250. Forced                                   : No
  251. Text #16
  252. ID                                       : 18
  253. Format                                   : UTF-8
  254. Codec ID                                 : S_TEXT/UTF8
  255. Codec ID/Info                            : UTF-8 Plain Text
  256. Duration                                 : 1 h 43 min
  257. Bit rate                                 : 59 b/s
  258. Count of elements                        : 1640
  259. Stream size                              : 45.5 KiB (0%)
  260. Language                                 : Italian
  261. Default                                  : No
  262. Forced                                   : No
  263. Text #17
  264. ID                                       : 19
  265. Format                                   : UTF-8
  266. Codec ID                                 : S_TEXT/UTF8
  267. Codec ID/Info                            : UTF-8 Plain Text
  268. Duration                                 : 1 h 43 min
  269. Bit rate                                 : 53 b/s
  270. Count of elements                        : 1602
  271. Stream size                              : 40.4 KiB (0%)
  272. Title                                    : Japan
  273. Language                                 : Japanese
  274. Default                                  : No
  275. Forced                                   : No
  276. Text #18
  277. ID                                       : 20
  278. Format                                   : UTF-8
  279. Codec ID                                 : S_TEXT/UTF8
  280. Codec ID/Info                            : UTF-8 Plain Text
  281. Duration                                 : 1 h 43 min
  282. Bit rate                                 : 66 b/s
  283. Count of elements                        : 1651
  284. Stream size                              : 50.5 KiB (0%)
  285. Title                                    : South Korea
  286. Language                                 : Korean
  287. Default                                  : No
  288. Forced                                   : No
  289. Text #19
  290. ID                                       : 21
  291. Format                                   : UTF-8
  292. Codec ID                                 : S_TEXT/UTF8
  293. Codec ID/Info                            : UTF-8 Plain Text
  294. Duration                                 : 1 h 43 min
  295. Bit rate                                 : 57 b/s
  296. Count of elements                        : 1637
  297. Stream size                              : 44.0 KiB (0%)
  298. Title                                    : Malaysia
  299. Language                                 : Malay
  300. Default                                  : No
  301. Forced                                   : No
  302. Text #20
  303. ID                                       : 22
  304. Format                                   : UTF-8
  305. Codec ID                                 : S_TEXT/UTF8
  306. Codec ID/Info                            : UTF-8 Plain Text
  307. Duration                                 : 1 h 43 min
  308. Bit rate                                 : 58 b/s
  309. Count of elements                        : 1646
  310. Stream size                              : 44.7 KiB (0%)
  311. Title                                    : Norway
  312. Language                                 : Norwegian Bokmal
  313. Default                                  : No
  314. Forced                                   : No
  315. Text #21
  316. ID                                       : 23
  317. Format                                   : UTF-8
  318. Codec ID                                 : S_TEXT/UTF8
  319. Codec ID/Info                            : UTF-8 Plain Text
  320. Duration                                 : 1 h 43 min
  321. Bit rate                                 : 55 b/s
  322. Count of elements                        : 1638
  323. Stream size                              : 42.5 KiB (0%)
  324. Language                                 : Dutch
  325. Default                                  : No
  326. Forced                                   : No
  327. Text #22
  328. ID                                       : 24
  329. Format                                   : UTF-8
  330. Codec ID                                 : S_TEXT/UTF8
  331. Codec ID/Info                            : UTF-8 Plain Text
  332. Duration                                 : 1 h 43 min
  333. Bit rate                                 : 50 b/s
  334. Count of elements                        : 1585
  335. Stream size                              : 38.3 KiB (0%)
  336. Language                                 : Polish
  337. Default                                  : No
  338. Forced                                   : No
  339. Text #23
  340. ID                                       : 25
  341. Format                                   : UTF-8
  342. Codec ID                                 : S_TEXT/UTF8
  343. Codec ID/Info                            : UTF-8 Plain Text
  344. Duration                                 : 1 h 43 min
  345. Bit rate                                 : 60 b/s
  346. Count of elements                        : 1646
  347. Stream size                              : 46.1 KiB (0%)
  348. Title                                    : Brazil
  349. Language                                 : Portuguese
  350. Default                                  : No
  351. Forced                                   : No
  352. Text #24
  353. ID                                       : 26
  354. Format                                   : UTF-8
  355. Codec ID                                 : S_TEXT/UTF8
  356. Codec ID/Info                            : UTF-8 Plain Text
  357. Duration                                 : 1 h 43 min
  358. Bit rate                                 : 60 b/s
  359. Count of elements                        : 1646
  360. Stream size                              : 45.7 KiB (0%)
  361. Language                                 : Portuguese
  362. Default                                  : No
  363. Forced                                   : No
  364. Text #25
  365. ID                                       : 27
  366. Format                                   : UTF-8
  367. Codec ID                                 : S_TEXT/UTF8
  368. Codec ID/Info                            : UTF-8 Plain Text
  369. Duration                                 : 1 h 43 min
  370. Bit rate                                 : 64 b/s
  371. Count of elements                        : 1648
  372. Stream size                              : 48.9 KiB (0%)
  373. Language                                 : Romanian
  374. Default                                  : No
  375. Forced                                   : No
  376. Text #26
  377. ID                                       : 28
  378. Format                                   : UTF-8
  379. Codec ID                                 : S_TEXT/UTF8
  380. Codec ID/Info                            : UTF-8 Plain Text
  381. Duration                                 : 1 h 43 min
  382. Bit rate                                 : 100 b/s
  383. Count of elements                        : 1651
  384. Stream size                              : 76.0 KiB (0%)
  385. Language                                 : Russian
  386. Default                                  : No
  387. Forced                                   : No
  388. Text #27
  389. ID                                       : 29
  390. Format                                   : UTF-8
  391. Codec ID                                 : S_TEXT/UTF8
  392. Codec ID/Info                            : UTF-8 Plain Text
  393. Duration                                 : 1 h 43 min
  394. Bit rate                                 : 60 b/s
  395. Count of elements                        : 1645
  396. Stream size                              : 45.8 KiB (0%)
  397. Title                                    : Sweden
  398. Language                                 : Swedish
  399. Default                                  : No
  400. Forced                                   : No
  401. Text #28
  402. ID                                       : 30
  403. Format                                   : UTF-8
  404. Codec ID                                 : S_TEXT/UTF8
  405. Codec ID/Info                            : UTF-8 Plain Text
  406. Duration                                 : 1 h 43 min
  407. Bit rate                                 : 158 b/s
  408. Count of elements                        : 1652
  409. Stream size                              : 120 KiB (0%)
  410. Title                                    : India
  411. Language                                 : Tamil
  412. Default                                  : No
  413. Forced                                   : No
  414. Text #29
  415. ID                                       : 31
  416. Format                                   : UTF-8
  417. Codec ID                                 : S_TEXT/UTF8
  418. Codec ID/Info                            : UTF-8 Plain Text
  419. Duration                                 : 1 h 43 min
  420. Bit rate                                 : 158 b/s
  421. Count of elements                        : 1655
  422. Stream size                              : 120 KiB (0%)
  423. Title                                    : India
  424. Language                                 : Telugu
  425. Default                                  : No
  426. Forced                                   : No
  427. Text #30
  428. ID                                       : 32
  429. Format                                   : UTF-8
  430. Codec ID                                 : S_TEXT/UTF8
  431. Codec ID/Info                            : UTF-8 Plain Text
  432. Duration                                 : 1 h 43 min
  433. Bit rate                                 : 151 b/s
  434. Count of elements                        : 1652
  435. Stream size                              : 115 KiB (0%)
  436. Language                                 : Thai
  437. Default                                  : No
  438. Forced                                   : No
  439. Text #31
  440. ID                                       : 33
  441. Format                                   : UTF-8
  442. Codec ID                                 : S_TEXT/UTF8
  443. Codec ID/Info                            : UTF-8 Plain Text
  444. Duration                                 : 1 h 43 min
  445. Bit rate                                 : 60 b/s
  446. Count of elements                        : 1649
  447. Stream size                              : 45.6 KiB (0%)
  448. Language                                 : Turkish
  449. Default                                  : No
  450. Forced                                   : No
  451. Text #32
  452. ID                                       : 34
  453. Format                                   : UTF-8
  454. Codec ID                                 : S_TEXT/UTF8
  455. Codec ID/Info                            : UTF-8 Plain Text
  456. Duration                                 : 1 h 43 min
  457. Bit rate                                 : 60 b/s
  458. Count of elements                        : 1651
  459. Stream size                              : 45.6 KiB (0%)
  460. Title                                    : Simplified
  461. Language                                 : Chinese
  462. Default                                  : No
  463. Forced                                   : No
  464. Text #33
  465. ID                                       : 35
  466. Format                                   : UTF-8
  467. Codec ID                                 : S_TEXT/UTF8
  468. Codec ID/Info                            : UTF-8 Plain Text
  469. Duration                                 : 1 h 43 min
  470. Bit rate                                 : 64 b/s
  471. Count of elements                        : 1652
  472. Stream size                              : 48.7 KiB (0%)
  473. Title                                    : Traditional
  474. Language                                 : Chinese
  475. Default                                  : No
  476. Forced                                   : No
  477. Menu
  478. 00:00:00.000                             : en:Amazon Studios
  479. 00:00:20.000                             : en:Scene 2
  480. 00:01:41.000                             : en:Scene 3
  481. 00:04:13.000                             : en:Scene 4
  482. 00:06:43.000                             : en:Scene 5
  483. 00:13:02.000                             : en:Scene 6
  484. 00:16:29.000                             : en:Scene 7
  485. 00:20:35.000                             : en:Scene 8
  486. 00:28:34.000                             : en:Scene 9
  487. 00:32:03.000                             : en:Scene 10
  488. 00:35:38.000                             : en:Scene 11
  489. 00:37:08.000                             : en:Scene 12
  490. 00:41:40.000                             : en:Scene 13
  491. 00:44:47.000                             : en:Scene 14
  492. 00:50:03.000                             : en:Scene 15
  493. 00:50:49.000                             : en:Scene 16
  494. 00:53:06.000                             : en:Scene 17
  495. 00:56:15.000                             : en:Scene 18
  496. 00:57:17.000                             : en:Scene 19
  497. 01:03:32.000                             : en:Scene 20
  498. 01:04:21.000                             : en:Scene 21
  499. 01:12:17.000                             : en:Scene 22
  500. 01:13:41.000                             : en:Scene 23
  501. 01:20:16.000                             : en:Scene 24
  502. 01:23:57.000                             : en:Scene 25
  503. 01:25:24.000                             : en:Scene 26
  504. 01:32:08.000                             : en:Scene 27
  505. 01:33:26.000                             : en:Scene 28
  506. 01:34:35.000                             : en:Scene 29
  507. 01:37:43.000                             : en:End Credits
复制代码




TAGS 剧情 喜剧 /

磁力链:
  • magnet:?xt=urn:btih:751DE3B71B0B26AF0CCCEDFF5C33EE47FB7EC732
上传的附件:
BT9527电影天堂 1、BT9527电影天堂提供的BT文件均来源于互联网抓取,只供网友学习交流、技术提升使用。
2、我们遵守BitTorrent点对点协议原则,任何版权问题请联系原资源发布商,我们不处理任何版权纠纷,谢谢!如有争议请联系邮箱:BT9527#hotmail.com(#换成@)
3、如果您发现某页面或地址有错误,请联系站长邮箱BT9527#hotmail.com(#换成@),我们会尽快处理。您的热心是对BT9527电影天堂最大的支持。
4、本站建议去正规影院观看电影以支持电影行业发展。
最新回复 (0)

你可以在 登录 or 注册 后,对此帖发表评论!

返回
发新帖