勿远行[中文字幕].Go.Too.Far.2018.1080p.SEEZN.WEB-DL.AAC2.0.H.264-CTRLWEB 4.29GB

版主小s 1月前 204



◎译  名 勿远行 / Don′t Go Too Far / 遗产风暴(台)
◎片  名 ??????
◎年  代 2018
◎产  地 韩国
◎类  别 剧情
◎语  言 韩语
◎上映日期 2018-10-06(釜山电影节) / 2021-03-04(韩国)
◎IMDb链接 https://www.imdb.com/title/tt8974584/
◎豆瓣链接 https://movie.douban.com/subject/30318244/
◎片  长 77分钟
◎演  员 孙秉浩 Byung-ho Son (id:1024148)
       宋京焕 Jin-hwan Son (id:1399893)
       朴明申 Myung-shin Park (id:1381298)
       李庆成 Lee Kyung Sung (id:1470819)
       李善熙 Seon-hee Lee (id:1320569)

◎简  介
  ???? ??? ?? 3? 1? ????? ?? ??? ?? ?? ?? ???. ???? ??? ??? ?? ??? ?? ??? ????, ??? ???? ?? ??? ?? ???. ?? ??? ??? ??? ??? ???? ??? ????.

  1. ##### MediaInfo ######
  2. General
  3. Unique ID                                : 25110066493031008604895536519762479222 (0x12E405DC8AA8A526AB18D717FBC50876)
  4. Complete name                            : Don′t.Go.Too.Far.2018.1080p.SEEZN.WEB-DL.AAC2.0.H.264-CTRLWEB.mkv
  5. Format                                   : Matroska
  6. Format version                           : Version 4
  7. File size                                : 4.29 GiB
  8. Duration                                 : 1 h 15 min
  9. Overall bit rate                         : 8 130 kb/s
  10. Encoded date                             : UTC 2022-05-27 14:30:00
  11. Writing application                      : mkvmerge v65.0.0 ('Too Much') 64-bit
  12. Writing library                          : libebml v1.4.2 + libmatroska v1.6.4
  13. Video
  14. ID                                       : 1
  15. Format                                   : AVC
  16. Format/Info                              : Advanced Video Codec
  17. Format profile                           : Main@L4
  18. Format settings                          : CABAC / 2 Ref Frames
  19. Format settings, CABAC                   : Yes
  20. Format settings, Reference frames        : 2 frames
  21. Format settings, GOP                     : M=1, N=30
  22. Codec ID                                 : V_MPEG4/ISO/AVC
  23. Duration                                 : 1 h 15 min
  24. Bit rate mode                            : Constant
  25. Bit rate                                 : 8 000 kb/s
  26. Width                                    : 1 920 pixels
  27. Height                                   : 1 080 pixels
  28. Display aspect ratio                     : 16:9
  29. Frame rate mode                          : Constant
  30. Frame rate                               : 23.976 (24000/1001/53354) FPS
  31. Color space                              : YUV
  32. Chroma subsampling                       : 4:2:0
  33. Bit depth                                : 8 bits
  34. Scan type                                : Progressive
  35. Bits/(Pixel*Frame)                       : 0.161
  36. Stream size                              : 4.22 GiB (98%)
  37. Default                                  : Yes
  38. Forced                                   : No
  39. Audio
  40. ID                                       : 2
  41. Format                                   : AAC LC
  42. Format/Info                              : Advanced Audio Codec Low Complexity
  43. Codec ID                                 : A_AAC-2
  44. Duration                                 : 1 h 15 min
  45. Bit rate                                 : 128 kb/s
  46. Channel(s)                               : 2 channels
  47. Channel layout                           : L R
  48. Sampling rate                            : 48.0 kHz
  49. Frame rate                               : 46.875 FPS (1024 SPF)
  50. Compression mode                         : Lossy
  51. Stream size                              : 69.2 MiB (2%)
  52. Language                                 : Korean
  53. Default                                  : Yes
  54. Forced                                   : No
  55. Text #1
  56. ID                                       : 3
  57. Format                                   : UTF-8
  58. Codec ID                                 : S_TEXT/UTF8
  59. Codec ID/Info                            : UTF-8 Plain Text
  60. Duration                                 : 1 h 12 min
  61. Bit rate                                 : 49 b/s
  62. Count of elements                        : 1112
  63. Stream size                              : 26.4 KiB (0%)
  64. Title                                    : Chinese Simplified
  65. Language                                 : Chinese
  66. Default                                  : Yes
  67. Forced                                   : No
  68. Text #2
  69. ID                                       : 4
  70. Format                                   : UTF-8
  71. Codec ID                                 : S_TEXT/UTF8
  72. Codec ID/Info                            : UTF-8 Plain Text
  73. Duration                                 : 1 h 12 min
  74. Bit rate                                 : 49 b/s
  75. Count of elements                        : 1112
  76. Stream size                              : 26.4 KiB (0%)
  77. Title                                    : Chinese Traditional
  78. Language                                 : Chinese
  79. Default                                  : Yes
  80. Forced                                   : No
复制代码




TAGS 剧情

磁力链:
  • magnet:?xt=urn:btih:3D38A409D3F943441D1ADD95AA5ACA93FB71A107
上传的附件:
BT9527电影天堂 1、BT9527电影天堂提供的BT文件均来源于互联网抓取,只供网友学习交流、技术提升使用。
2、我们遵守BitTorrent点对点协议原则,任何版权问题请联系原资源发布商,我们不处理任何版权纠纷,谢谢!如有争议请联系邮箱:BT9527#hotmail.com(#换成@)
3、如果您发现某页面或地址有错误,请联系站长邮箱BT9527#hotmail.com(#换成@),我们会尽快处理。您的热心是对BT9527电影天堂最大的支持。
4、本站建议去正规影院观看电影以支持电影行业发展。
最新回复 (0)

你可以在 登录 or 注册 后,对此帖发表评论!

返回
发新帖