诅咒[中文字幕].Cursed.2005.1080p.BluRay.DTS.x265-10bit-ENTHD 7.06GB

版主小s 1月前 131



◎译  名 诅咒 / 被诅咒者
◎片  名 Cursed
◎年  代 2005
◎产  地 美国 / 德国
◎类  别 喜剧 / 惊悚 / 恐怖 / 奇幻
◎语  言 英语
◎上映日期 2005-02-25
◎IMDb链接 https://www.imdb.com/title/tt0257516/
◎豆瓣评分 5.5/10 (1777人评价)
◎豆瓣链接 https://movie.douban.com/subject/1308984/
◎片  长 97 分钟
◎导  演 韦斯·克雷文 Wes Craven (id:1025221)
◎编  剧 凯文·威廉姆森 Kevin Williamson (id:1032153)
◎演  员 波西亚·德·罗西 Portia de Rossi (id:1004597)
       莎诺·伊丽莎白 Shannon Elizabeth (id:1049524)
       米洛·文堤米利亚 Milo Ventimiglia (id:1009262)
       克里斯蒂娜·里奇 Christina Ricci (id:1035653)
       玛雅 Mya (id:1027424)
       克里斯汀娜·安娜波 Kristina Anapau (id:1040780)
       杰西·艾森伯格 Jesse Eisenberg (id:1027144)
       埃里克·拉丁 Eric Ladin (id:1205428)
       乔舒亚·杰克逊 Joshua Jackson (id:1017906)
       克雷格·基尔伯恩 Craig Kilborn (id:1107642)
       斯克特·拜奥 Scott Baio (id:1049695)
       兰斯·巴斯 Lance Bass (id:1045056)
        Jason Pierce (id:1241956)
       威尔莫·卡德隆 Wilmer Calderon (id:1045385)
       布雷特·里克比 Brett Rickaby (id:1036865)
       杨雅慧 Michelle Krusiec (id:1027334)
       Jason Cox Jason Cox (id:1011088)
       尼克·奥弗曼 Nick Offerman (id:1009365)
       迈克尔·罗森巴姆 Michael Rosenbaum (id:1009299)
       朱迪·格雷尔 Judy Greer (id:1009256)
       德里克·梅耶斯 Derek Mears (id:1048121)
        Christopher Van Malmsteen (id:1224280)
       杰森道理 Jason Dottley (id:1221230)
       汉斯·雷斯 Hans Raith (id:1212947)
       Katie Keim Katie Keim (id:1199041)
       格里高利·尼克特洛 Gregory Nicotero (id:1128804)
       Johnny Ray Johnny Ray (id:1191860)
       Jaret Reddick Jaret Reddick (id:1181612)
       沙沙维恩·豪尔 Shashawnee Hall (id:1093388)
       加里·杜宾 Gary Dubin (id:1087320)
       Doug Berry Doug Berry (id:1063095)
       克里斯·约翰逊 Chris Johnson (id:1050080)
       凯文·威廉姆森 Kevin Williamson (id:1032153)
       大卫·克罗基特 David Crockett (id:1281502)
       玛丽安·马达莱娜 Marianne Maddalena (id:1290689)
       哈维·韦恩斯坦 Harvey Weinstein (id:1054304)
       鲍伯·韦恩斯坦 Bob Weinstein (id:1300654)
       马可·贝尔崔米 Marco Beltrami (id:1027998)
       罗伯特·麦克拉克兰 Robert McLachlan (id:1291669)
       Lisa Romaniw Lisa Romaniw (id:1292654)
       Lisa Beach Lisa Beach (id:1278137)
       Greg Orson Greg Orson (id:1134991)
       Sarah Katzman Sarah Katzman (id:1288211)
       安德鲁·马克斯·卡恩 Andrew Max Cahn (id:1279850)
       道格拉斯·A·莫瓦特 Douglas A. Mowat (id:1292643)
       格雷迪·霍德尔 Grady Holder (id:1094670)
       Bill Sturgeon Bill Sturgeon (id:1298591)
       Michael Burnett Michael Burnett (id:1008305)
       Randy Westgate Randy Westgate (id:1300743)
       Julie Pearce Julie Pearce (id:1294166)
       托马斯·弗洛茨 Thomas Floutz (id:1283888)
       Judy Crown Judy Crown (id:1281556)
       杰克·加伯 Jake Garber (id:1098012)
       霍华德·伯杰 Howard Berger (id:1278442)
       Anita Brabec Anita Brabec (id:1279133)
       里克·贝克 Rick Baker (id:1036707)
       格里高利·尼克特洛 Gregory Nicotero (id:1128804)
       洛瑞·麦考伊-贝尔 Lori McCoy-Bell (id:1291501)
       Judy Lovell Judy Lovell (id:1290361)
       道格拉斯·诺亚 Douglas Noe (id:1293238)
       西尔维亚·纳瓦 Sylvia Nava (id:1292952)
       Yoichi Art Sakamoto Yoichi Art Sakamoto (id:1140584)
       Angie Wells Angie Wells (id:1164549)
       郑继宗 Andy Cheng (id:1280598)
       瑞克·艾弗里 Rick Avery (id:1277606)
       Maria Mantia Maria Mantia (id:1290920)
       理查德·R·胡佛 Richard R. Hoover (id:1286886)
       Kevin Hudson Kevin Hudson (id:1287090)
       梅利莎·贝斯特 Melissa Best (id:1189596)
       David A. Smith David A. Smith (id:1297867)
       Jill Berger Jill Berger (id:1181618)
       杰森·布斯 Jason Booth (id:1176425)
       凯文·安德鲁·史密斯 Kevin Andrew Smith (id:1197070)
       保罗·麦吉 Paul McGhee (id:1118678)
       乔治·泰勒 George Taylor (id:1170370)
       Chloe Grysole Chloe Grysole (id:1101381)
       Frank D'Iorio Frank D'Iorio (id:1075960)
       Roxanne Dorman Roxanne Dorman (id:1081123)
       凯文·托德·豪格 Kevin Tod Haug (id:1014807)
       Ben Houston Ben Houston (id:1201751)
       肖恩·康拉德 Sean Konrad (id:1203962)
       贾米森·戈伊 Jamison Scott Goei (id:1276407)
       斯宾塞·库克 Spencer Cook (id:1281199)
        Tom Leckie (id:1229772)
       Sarahjane Javelo Sarahjane Javelo (id:1308117)
       Bruce Jurgens Bruce Jurgens (id:1012898)
       Keith W. Smith Keith W. Smith (id:1304841)
        Susan Polk Little (id:1218526)
       Kathryn Fowler Kathryn Fowler (id:1209549)
       Layne Friedman Layne Friedman (id:1284220)

◎简  介
  父母的早逝让艾莲(克里斯蒂娜·里奇 Christina Ricci 饰)和吉姆(杰西·艾森伯格 Jesse Eisenberg 饰)这对兄妹不得不早早过上了相依为命的困苦生活,可即便如此,他们两人之间糟糕的关系也没有半分改变。一次意外中,兄妹两出了车祸,所幸并无大碍,可接下去发生的事情就没有这么幸运了——他们被体型巨大的恶狼袭击了。                                    
                                虽然受了伤,但艾莲和吉姆至少保住了性命,然而,自袭击事件发生那天起,一些两人无论如何都无法忽略的变化开始在他们的身上产生了,他们的感官变得异常灵敏,皮肤上长出了粗硬的毛发,性格也开始变幻无常,着所有的一切都指向了一个答案——艾莲和吉姆开始了向狼人的变异。

◎获奖情况 (共1项)
  第14届MTV电影奖 (2005)
  MTV电影奖 最佳惊恐戏表演(提名)
   └──玛雅 (id:1027424)

  1. ##### MediaInfo ######
  2. General
  3. Unique ID                                : 305604895454248249398481200925998730733 (0xE5E95CA77CF90CB91F64A84A42D64DED)
  4. Complete name                            : Cursed.2005.1080p.BluRay.DTS.x265-10bit-ENTHD.mkv
  5. Format                                   : Matroska
  6. Format version                           : Version 4
  7. File size                                : 7.06 GiB
  8. Duration                                 : 1 h 37 min
  9. Overall bit rate                         : 10.4 Mb/s
  10. Movie name                               : Cursed 2005 1080p BluRay DTS x265-10bit-HDS
  11. Encoded date                             : UTC 2022-05-27 04:20:06
  12. Writing application                      : mkvmerge v67.0.0 ('Under Stars') 64-bit
  13. Writing library                          : libebml v1.4.2 + libmatroska v1.6.4
  14. Video
  15. ID                                       : 1
  16. Format                                   : HEVC
  17. Format/Info                              : High Efficiency Video Coding
  18. Format profile                           : Main 10@L5.1@High
  19. Codec ID                                 : V_MPEGH/ISO/HEVC
  20. Duration                                 : 1 h 37 min
  21. Bit rate                                 : 8 869 kb/s
  22. Width                                    : 1 920 pixels
  23. Height                                   : 800 pixels
  24. Display aspect ratio                     : 2.40:1
  25. Frame rate mode                          : Constant
  26. Frame rate                               : 23.976 (24000/1001/53354) FPS
  27. Color space                              : YUV
  28. Chroma subsampling                       : 4:2:0
  29. Bit depth                                : 10 bits
  30. Bits/(Pixel*Frame)                       : 0.241
  31. Stream size                              : 6.01 GiB (85%)
  32. Title                                    : meyu@HDSky
  33. Writing library                          : x265 - H.265/HEVC codec
  34. Default                                  : Yes
  35. Forced                                   : No
  36. Audio
  37. ID                                       : 2
  38. Format                                   : DTS
  39. Format/Info                              : Digital Theater Systems
  40. Codec ID                                 : A_DTS
  41. Duration                                 : 1 h 37 min
  42. Bit rate mode                            : Constant
  43. Bit rate                                 : 1 509 kb/s
  44. Channel(s)                               : 6 channels
  45. Channel layout                           : C L R Ls Rs LFE
  46. Sampling rate                            : 48.0 kHz
  47. Frame rate                               : 93.750 FPS (512 SPF)
  48. Bit depth                                : 24 bits
  49. Compression mode                         : Lossy
  50. Stream size                              : 1.02 GiB (14%)
  51. Title                                    : English
  52. Language                                 : English
  53. Default                                  : Yes
  54. Forced                                   : No
  55. Text #1
  56. ID                                       : 3
  57. Format                                   : PGS
  58. Muxing mode                              : zlib
  59. Codec ID                                 : S_HDMV/PGS
  60. Codec ID/Info                            : Picture based subtitle format used on BDs/HD-DVDs
  61. Duration                                 : 1 h 31 min
  62. Bit rate                                 : 32.8 kb/s
  63. Count of elements                        : 1926
  64. Stream size                              : 21.4 MiB (0%)
  65. Title                                    : CHS
  66. Language                                 : Chinese
  67. Default                                  : Yes
  68. Forced                                   : No
  69. Text #2
  70. ID                                       : 4
  71. Format                                   : PGS
  72. Muxing mode                              : zlib
  73. Codec ID                                 : S_HDMV/PGS
  74. Codec ID/Info                            : Picture based subtitle format used on BDs/HD-DVDs
  75. Duration                                 : 1 h 36 min
  76. Bit rate                                 : 32.8 kb/s
  77. Count of elements                        : 2221
  78. Stream size                              : 22.7 MiB (0%)
  79. Title                                    : ENG
  80. Language                                 : English
  81. Default                                  : Yes
  82. Forced                                   : No
  83. Menu
  84. 00:00:00.000                             : en:第 01 章
  85. 00:07:30.116                             : en:第 02 章
  86. 00:14:13.102                             : en:第 03 章
  87. 00:21:03.637                             : en:第 04 章
  88. 00:27:26.562                             : en:第 05 章
  89. 00:37:09.477                             : en:第 06 章
  90. 00:46:56.230                             : en:第 07 章
  91. 00:52:34.401                             : en:第 08 章
  92. 00:57:31.114                             : en:第 09 章
  93. 01:04:49.719                             : en:第 10 章
  94. 01:11:59.440                             : en:第 11 章
  95. 01:18:47.181                             : en:第 12 章
复制代码




TAGS 奇幻 惊悚 恐怖 喜剧 /

磁力链:
  • magnet:?xt=urn:btih:8E1437F7CFA895728F705526F985AD12F85CF45B
上传的附件:
BT9527电影天堂 1、BT9527电影天堂提供的BT文件均来源于互联网抓取,只供网友学习交流、技术提升使用。
2、我们遵守BitTorrent点对点协议原则,任何版权问题请联系原资源发布商,我们不处理任何版权纠纷,谢谢!如有争议请联系邮箱:BT9527#hotmail.com(#换成@)
3、如果您发现某页面或地址有错误,请联系站长邮箱BT9527#hotmail.com(#换成@),我们会尽快处理。您的热心是对BT9527电影天堂最大的支持。
4、本站建议去正规影院观看电影以支持电影行业发展。
最新回复 (0)

你可以在 登录 or 注册 后,对此帖发表评论!

返回
发新帖