英雄连[中文字幕].Company.Of.Heroes.2013.BluRay.1080p.DTS-HD.MA.5.1.x265.10bit-CTRLHD 7.36GB

版主小s 4月前 322

英雄连[中文字幕].Company.Of.Heroes.2013.BluRay.1080p.DTS-HD.MA.5.1.x265.10bit-CTRLHD 7.36GB
◎译  名 英雄连 / 铁幕英雄(港) / 英雄连队(台) / 战火英雄连
◎片  名 Company of Heroes
◎年  代 2013
◎产  地 美国
◎类  别 动作 / 战争
◎语  言 英语
◎上映日期 2013-02-16(美国)
◎IMDb链接 https://www.imdb.com/title/tt2555426/
◎豆瓣评分 5.3/10 (2229人评价)
◎豆瓣链接 https://movie.douban.com/subject/20431750/
◎片  长 100分钟
◎导  演 唐·迈克尔·保罗 Don Michael Paul (id:1000599)
◎编  剧 丹尼·比尔森 Danny Bilson (id:1023142)
       保罗·德米奥 Paul De Meo (id:1411066)
       戴维·瑞德 David Reed (id:1222403)
◎演  员 汤姆·塞兹摩尔 Tom Sizemore (id:1036371)
       查德·科林斯 Chad Collins (id:1191945)
       维尼·琼斯 Vinnie Jones (id:1013804)
       迪米特里·迪雅特琴科 Dimitri Diatchenko (id:1356363)
       尼尔·麦克唐纳 Neal McDonough (id:1031878)
       尤尔根·普洛斯诺 Jürgen Prochnow (id:1019048)
       梅利亚·科尔林 Melia Kreiling (id:1327083)
       理查德·塞梅尔 Richard Sammel (id:1337751)
       阿拉斯塔尔·麦肯泽 Alastair Mackenzie (id:1323646)
       阿塔纳斯·斯雷布雷夫 Atanas Srebrev (id:1195460)
       萨姆·斯普卢尔  Sam Spruell (id:1316018)
       维利贝·托皮奇 Velibor Topic (id:1320241)

◎简  介
  1944年12月,位于比利时阿登森林的美军第二步兵师康提中尉命令麦瑟森中士带部下运送火腿至前线。途中麦瑟森小队遭遇德军袭击,车辆、物资被毁。在往营部撤退中,意外传入一德军原子弹试验基地,在基地找到一名负伤的美军情报员,情报员临死前强烈要求他们深入仍由德军占领的斯图加特破坏德军的原子弹计划。随后,麦瑟森小队出发执行危险、艰巨的任务……最终他们运回一颗德军制造完毕的原子弹,顺带还解救了一大帮战俘。

  1. ##### MediaInfo ######
  2. General
  3. Unique ID                                : 17604349184086768791182550628892197127 (0xD3E796D54BA494F53DC1B2698A0C107)
  4. Complete name                            : Company.Of.Heroes.2013.BluRay.1080p.DTS-HD.MA.5.1.x265.10bit-CTRLHD.mkv
  5. Format                                   : Matroska
  6. Format version                           : Version 4
  7. File size                                : 7.36 GiB
  8. Duration                                 : 1 h 40 min
  9. Overall bit rate mode                    : Variable
  10. Overall bit rate                         : 10.5 Mb/s
  11. Encoded date                             : UTC 2022-05-24 21:02:06
  12. Writing application                      : mkvmerge v45.0.0 ('Heaven in Pennies') 64-bit
  13. Writing library                          : libebml v1.3.10 + libmatroska v1.5.2
  14. Video
  15. ID                                       : 1
  16. Format                                   : HEVC
  17. Format/Info                              : High Efficiency Video Coding
  18. Format profile                           : Main 10@L5.1@High
  19. Codec ID                                 : V_MPEGH/ISO/HEVC
  20. Duration                                 : 1 h 40 min
  21. Bit rate                                 : 8 102 kb/s
  22. Width                                    : 1 920 pixels
  23. Height                                   : 1 080 pixels
  24. Display aspect ratio                     : 16:9
  25. Frame rate mode                          : Constant
  26. Frame rate                               : 23.976 (24000/1001/53354) FPS
  27. Color space                              : YUV
  28. Chroma subsampling                       : 4:2:0
  29. Bit depth                                : 10 bits
  30. Bits/(Pixel*Frame)                       : 0.163
  31. Stream size                              : 5.69 GiB (77%)
  32. Writing library                          : x265 3.4+24-g6ed1c24a2:[Windows][GCC 10.2.1][64 bit] 10bit
  33. Encoding settings                        : cpuid=533541111039 / frame-threads=3 / numa-pools=12 / wpp / pmode / pme / no-psnr / no-ssim / log-level=2 / input-csp=1 / input-res=1920x1080 / interlace=0 / total-frames=144528 / level-idc=51 / high-tier=1 / uhd-bd=0 / ref=4 / no-allow-non-conformance / repeat-headers / annexb / no-aud / no-hrd / info / hash=0 / no-temporal-layers / no-open-gop / min-keyint=23 / keyint=250 / gop-lookahead=0 / bframes=8 / b-adapt=2 / b-pyramid / bframe-bias=0 / rc-lookahead=60 / lookahead-slices=6 / NTMzNTQ=uuDQuD2mJt9fsCf / scenecut=40 / hist-scenecut=0 / radl=0 / no-splice / no-intra-refresh / ctu=32 / min-cu-size=8 / no-rect / no-amp / max-tu-size=32 / tu-inter-depth=3 / tu-intra-depth=3 / limit-tu=0 / rdoq-level=0 / dynamic-rd=0.00 / no-ssim-rd / signhide / no-tskip / nr-intra=0 / nr-inter=0 / no-constrained-intra / strong-intra-smoothing / max-merge=3 / limit-refs=1 / no-limit-modes / me=2 / subme=5 / merange=48 / temporal-mvp / no-frame-dup / no-hme / weightp / weightb / no-analyze-src-pics / deblock=0:0 / no-sao / no-sao-non-deblock / rd=3 / selective-sao=0 / early-skip / rskip / no-fast-intra / no-tskip-fast / no-cu-lossless / b-intra / no-splitrd-skip / rdpenalty=1 / psy-rd=2.00 / psy-rdoq=0.00 / no-rd-refine / no-lossless / cbqpoffs=0 / crqpoffs=0 / rc=crf / crf=14.8 / qcomp=0.50 / qpstep=4 / stats-write=0 / stats-read=0 / vbv-maxrate=160000 / vbv-bufsize=160000 / vbv-init=0.9 / crf-max=0.0 / crf-min=0.0 / ipratio=1.40 / pbratio=1.20 / aq-mode=2 / aq-strength=0.90 / cutree / zone-count=0 / no-strict-cbr / qg-size=32 / no-rc-grain / qpmax=69 / qpmin=0 / no-const-vbv / sar=0 / overscan=0 / videoformat=5 / range=0 / colorprim=1 / transfer=1 / colormatrix=1 / chromaloc=0 / display-window=0 / cll=0,0 / min-luma=0 / max-luma=1023 / log2-max-poc-lsb=8 / vui-timing-info / vui-hrd-info / slices=1 / no-opt-qp-pps / no-opt-ref-list-length-pps / no-multi-pass-opt-rps / scenecut-bias=0.05 / hist-threshold=0.03 / no-opt-cu-delta-qp / no-aq-motion / no-hdr10 / no-hdr10-opt / no-dhdr10-opt / no-idr-recovery-sei / analysis-reuse-level=0 / analysis-save-reuse-level=0 / analysis-load-reuse-level=0 / scale-factor=0 / refine-intra=0 / refine-inter=0 / refine-mv=1 / refine-ctu-distortion=0 / no-limit-sao / ctu-info=0 / no-lowpass-dct / refine-analysis-type=0 / copy-pic=1 / max-ausize-factor=1.0 / no-dynamic-refine / no-single-sei / no-hevc-aq / no-svt / no-field / qp-adaptation-range=1.00 / no-scenecut-aware-qpconformance-window-offsets / right=0 / bottom=0 / NTMzNTQ= / decoder-max-rate=0 / no-vbv-live-multi-pass
  34. Default                                  : Yes
  35. Forced                                   : No
  36. Color range                              : Limited
  37. Color primaries                          : BT.709
  38. Transfer characteristics                 : BT.709
  39. Matrix coefficients                      : BT.709
  40. Audio
  41. ID                                       : 2
  42. Format                                   : DTS XLL
  43. Format/Info                              : Digital Theater Systems
  44. Commercial name                          : DTS-HD Master Audio
  45. Codec ID                                 : A_DTS
  46. Duration                                 : 1 h 40 min
  47. Bit rate mode                            : Variable
  48. Bit rate                                 : 2 334 kb/s
  49. Channel(s)                               : 6 channels
  50. Channel layout                           : C L R Ls Rs LFE
  51. Sampling rate                            : 48.0 kHz
  52. Frame rate                               : 93.750 FPS (512 SPF)
  53. Bit depth                                : 16 bits
  54. Compression mode                         : Lossless
  55. Stream size                              : 1.64 GiB (22%)
  56. Language                                 : English
  57. Default                                  : Yes
  58. Forced                                   : No
  59. Text #1
  60. ID                                       : 3
  61. Format                                   : PGS
  62. Muxing mode                              : zlib
  63. Codec ID                                 : S_HDMV/PGS
  64. Codec ID/Info                            : Picture based subtitle format used on BDs/HD-DVDs
  65. Duration                                 : 1 h 37 min
  66. Bit rate                                 : 17.9 kb/s
  67. Count of elements                        : 2044
  68. Stream size                              : 12.4 MiB (0%)
  69. Language                                 : English
  70. Default                                  : No
  71. Forced                                   : No
  72. Text #2
  73. ID                                       : 4
  74. Format                                   : PGS
  75. Muxing mode                              : zlib
  76. Codec ID                                 : S_HDMV/PGS
  77. Codec ID/Info                            : Picture based subtitle format used on BDs/HD-DVDs
  78. Duration                                 : 1 h 33 min
  79. Bit rate                                 : 21.5 kb/s
  80. Count of elements                        : 1567
  81. Stream size                              : 14.4 MiB (0%)
  82. Language                                 : English
  83. Default                                  : No
  84. Forced                                   : No
  85. Text #3
  86. ID                                       : 5
  87. Format                                   : PGS
  88. Muxing mode                              : zlib
  89. Codec ID                                 : S_HDMV/PGS
  90. Codec ID/Info                            : Picture based subtitle format used on BDs/HD-DVDs
  91. Duration                                 : 1 h 33 min
  92. Bit rate                                 : 21.5 kb/s
  93. Count of elements                        : 1567
  94. Stream size                              : 14.4 MiB (0%)
  95. Language                                 : English
  96. Default                                  : No
  97. Forced                                   : No
  98. Text #4
  99. ID                                       : 6
  100. Format                                   : PGS
  101. Muxing mode                              : zlib
  102. Codec ID                                 : S_HDMV/PGS
  103. Codec ID/Info                            : Picture based subtitle format used on BDs/HD-DVDs
  104. Duration                                 : 1 h 34 min
  105. Bit rate                                 : 19.7 kb/s
  106. Count of elements                        : 1627
  107. Stream size                              : 13.3 MiB (0%)
  108. Language                                 : Chinese
  109. Default                                  : Yes
  110. Forced                                   : No
  111. Text #5
  112. ID                                       : 7
  113. Format                                   : PGS
  114. Muxing mode                              : zlib
  115. Codec ID                                 : S_HDMV/PGS
  116. Codec ID/Info                            : Picture based subtitle format used on BDs/HD-DVDs
  117. Duration                                 : 1 h 34 min
  118. Bit rate                                 : 19.7 kb/s
  119. Count of elements                        : 1627
  120. Stream size                              : 13.2 MiB (0%)
  121. Language                                 : Chinese
  122. Default                                  : No
  123. Forced                                   : No
  124. Menu
  125. 00:00:00.000                             : en:Chapter 1
  126. 00:05:59.401                             : en:Chapter 2
  127. 00:11:24.809                             : en:Chapter 3
  128. 00:15:57.290                             : en:Chapter 4
  129. 00:22:15.876                             : en:Chapter 5
  130. 00:28:56.860                             : en:Chapter 6
  131. 00:34:36.533                             : en:Chapter 7
  132. 00:42:13.740                             : en:Chapter 8
  133. 00:46:32.790                             : en:Chapter 9
  134. 00:53:27.371                             : en:Chapter 10
  135. 00:59:41.620                             : en:Chapter 11
  136. 01:05:14.911                             : en:Chapter 12
  137. 01:11:46.385                             : en:Chapter 13
  138. 01:19:12.748                             : en:Chapter 14
  139. 01:23:54.780                             : en:Chapter 15
  140. 01:28:59.125                             : en:Chapter 16
复制代码




TAGS 动作 战争 /

磁力链:
  • magnet:?xt=urn:btih:EE256CBEEDCB8DF4D13EBBB445B3E28FF772F39C
上传的附件:
BT9527电影天堂 1、BT9527电影天堂提供的BT文件均来源于互联网抓取,只供网友学习交流、技术提升使用。
2、我们遵守BitTorrent点对点协议原则,任何版权问题请联系原资源发布商,我们不处理任何版权纠纷,谢谢!如有争议请联系邮箱:BT9527#hotmail.com(#换成@)
3、如果您发现某页面或地址有错误,请联系站长邮箱BT9527#hotmail.com(#换成@),我们会尽快处理。您的热心是对BT9527电影天堂最大的支持。
4、本站建议去正规影院观看电影以支持电影行业发展。
最新回复 (0)

你可以在 登录 or 注册 后,对此帖发表评论!

返回
发新帖