再次出发之纽约遇见你[国英多音轨/简繁字幕].Begin.Again.2013.1080p.BluRay.DTS.2Audio.x265-10bit-ENTHD 9.25GB

版主小s 1月前 113



◎译  名 再次出发之纽约遇见你 / 再次出发 / 歌曲改变人生 / 一切从音乐再开始(港) / 曼哈顿恋习曲(台) / 纽约小情歌 / 为乐而生 / 重新开始 / 重来 / Can a Song Save Your Life? / New York Melody
◎片  名 Begin Again
◎年  代 2013
◎产  地 美国
◎类  别 喜剧 / 爱情 / 音乐
◎语  言 英语
◎上映日期 2015-06-26(中国大陆) / 2013-09-07(多伦多电影节) / 2014-07-11(美国)
◎IMDb链接 https://www.imdb.com/title/tt1980929/
◎豆瓣评分 8.6/10 (392046人评价)
◎豆瓣链接 https://movie.douban.com/subject/6874403/
◎片  长 104分钟
◎导  演 约翰·卡尼 John Carney (id:1280127)
◎编  剧 约翰·卡尼 John Carney (id:1280127)
◎演  员 凯拉·奈特莉 Keira Knightley (id:1054448)
       马克·鲁弗洛 Mark Ruffalo (id:1040505)
       亚当·莱文 Adam Levine (id:1174312)
       詹姆斯·柯登 James Corden (id:1017966)
       海莉·斯坦菲尔德 Hailee Steinfeld (id:1312964)
       凯瑟琳·基纳 Catherine Keener (id:1002681)
       茅斯·达夫 Mos Def (id:1036449)
       罗伯·莫洛 Rob Morrow (id:1049677)
       伊恩·布罗茨基 Ian Brodsky (id:1384643)
       香农·沃尔什 Shannon Walsh (id:1384609)
       大卫·埃伯利斯 David Abeles (id:1384610)
       马科·阿桑特 Marco Assante (id:1384608)
       玛丽·凯瑟琳·歌瑞森 Mary Catherine Garrison (id:1101684)
       詹·雅各布 Jen Jacob (id:1384607)
       席洛·格林 CeeLo Green (id:1078248)
       詹妮弗·李·杰克逊 Jennifer Li Jackson (id:1347724)
       特里·刘易斯 Terry Lewis (id:1114861)
       吉米·帕伦博 Jimmy Palumbo (id:1337955)
       西蒙·德兰尼 Simon Delaney (id:1282187)
       丹妮尔·布里瑟布瓦 Danielle Brisebois (id:1068046)
       基恩·鲁弗洛 Keen Ruffalo (id:1384611)
       尼古拉斯·丹尼尔·冈萨雷斯 Nicholas Daniel Gonzalez (id:1384612)
       麦迪·科尔曼 Maddie Corman (id:1344854)
       阿雅·卡什 Aya Cash (id:1331388)
       大卫·彭德尔顿 David Pendleton (id:1131992)
       保罗·罗梅罗 Paul Romero (id:1384606)
       安德鲁·塞伦 Andrew Sellon (id:1175270)
       凯伦·皮特曼 Karen Pittman (id:1367269)
       罗恩·沃斯 Ron Voz (id:1384615)
       Yaron Orbach Yaron Orbach (id:1303173)
       格雷格·亚历山大 Gregg Alexander (id:1388224)

◎简  介
  格雷塔(凯拉·奈特莉 Keira Knightley 饰)抛弃了一切跟随着男友戴夫(亚当·李维 Adam Levine 饰)来到美国纽约实现他们的音乐和爱情梦想,没想到曾经幻想过的美好一切化作泡影,在获得了更好的工作机会后,戴夫果断抛弃了格雷塔,留下她一人苦苦在底层挣扎。                                    
                                丹(马克·鲁法洛 Mark Ruffalo 饰)最近的生活也不好过,他发现自己无法从思念前妻马瑞安(凯瑟琳·基纳 Catherine Keener 饰)的感情中走出来,与此同时,他的女儿维奥莱特(海莉·斯坦菲尔德 Hailee Steinfeld 饰)正处于一生中最叛逆的阶段。丹和格雷塔,命运让这失意的两人于一间小小的酒吧里相遇了,等待着他们的,会是怎样充满波折而又浪漫满满的故事呢?

◎获奖情况 (共6项)
  第87届奥斯卡金像奖 (2015)
  最佳原创歌曲(提名)

  第17届上海国际电影节 (2014)
  金爵奖 最佳影片(提名)
   └──约翰·卡尼 (id:1280127)

  第1届豆瓣电影年度榜单 (2014)
  评分最高的外语电影(提名)
  年度电影原声(提名)
  10月最受关注电影(提名)

  第5届豆瓣电影鑫像奖 (2015)
  鑫豆单元 最佳影片(外语)(提名)

  1. ##### MediaInfo ######
  2. General
  3. Unique ID                                : 113158197141209974202076947398725214212 (0x552179DD47A654DFB7131AE2F2102004)
  4. Complete name                            : Begin.Again.2013.1080p.BluRay.DTS.2Audio.x265-10bit-ENTHD.mkv
  5. Format                                   : Matroska
  6. Format version                           : Version 4
  7. File size                                : 9.25 GiB
  8. Duration                                 : 1 h 44 min
  9. Overall bit rate                         : 12.7 Mb/s
  10. Movie name                               : Begin Again 2013 1080p BluRay DTS 2Audio x265-10bit-HDS
  11. Encoded date                             : UTC 2022-05-27 06:52:50
  12. Writing application                      : mkvmerge v38.0.0 ('The Silent Type') 64-bit
  13. Writing library                          : libebml v1.3.9 + libmatroska v1.5.2
  14. Video
  15. ID                                       : 1
  16. Format                                   : HEVC
  17. Format/Info                              : High Efficiency Video Coding
  18. Format profile                           : Main 10@L5.1@High
  19. Codec ID                                 : V_MPEGH/ISO/HEVC
  20. Duration                                 : 1 h 44 min
  21. Bit rate                                 : 9 580 kb/s
  22. Width                                    : 1 920 pixels
  23. Height                                   : 1 036 pixels
  24. Display aspect ratio                     : 1.85:1
  25. Frame rate mode                          : Constant
  26. Frame rate                               : 23.976 (24000/1001/53354) FPS
  27. Color space                              : YUV
  28. Chroma subsampling                       : 4:2:0
  29. Bit depth                                : 10 bits
  30. Bits/(Pixel*Frame)                       : 0.201
  31. Stream size                              : 6.99 GiB (76%)
  32. Title                                    : yusuble@HDSky
  33. Writing library                          : x265 - H.265/HEVC codec
  34. Default                                  : Yes
  35. Forced                                   : No
  36. Audio #1
  37. ID                                       : 2
  38. Format                                   : DTS
  39. Format/Info                              : Digital Theater Systems
  40. Codec ID                                 : A_DTS
  41. Duration                                 : 1 h 44 min
  42. Bit rate mode                            : Constant
  43. Bit rate                                 : 1 509 kb/s
  44. Channel(s)                               : 6 channels
  45. Channel layout                           : C L R Ls Rs LFE
  46. Sampling rate                            : 48.0 kHz
  47. Frame rate                               : 93.750 FPS (512 SPF)
  48. Bit depth                                : 24 bits
  49. Compression mode                         : Lossy
  50. Stream size                              : 1.10 GiB (12%)
  51. Title                                    : English
  52. Language                                 : English
  53. Default                                  : Yes
  54. Forced                                   : No
  55. Audio #2
  56. ID                                       : 3
  57. Format                                   : DTS
  58. Format/Info                              : Digital Theater Systems
  59. Codec ID                                 : A_DTS
  60. Duration                                 : 1 h 44 min
  61. Bit rate mode                            : Constant
  62. Bit rate                                 : 1 509 kb/s
  63. Channel(s)                               : 6 channels
  64. Channel layout                           : C L R Ls Rs LFE
  65. Sampling rate                            : 48.0 kHz
  66. Frame rate                               : 93.750 FPS (512 SPF)
  67. Bit depth                                : 24 bits
  68. Compression mode                         : Lossy
  69. Stream size                              : 1.10 GiB (12%)
  70. Title                                    : Mandarin
  71. Language                                 : Chinese
  72. Default                                  : No
  73. Forced                                   : No
  74. Text #1
  75. ID                                       : 4
  76. Format                                   : PGS
  77. Muxing mode                              : zlib
  78. Codec ID                                 : S_HDMV/PGS
  79. Codec ID/Info                            : Picture based subtitle format used on BDs/HD-DVDs
  80. Duration                                 : 1 h 42 min
  81. Bit rate                                 : 50.2 kb/s
  82. Count of elements                        : 2309
  83. Stream size                              : 36.9 MiB (0%)
  84. Title                                    : CHS&ENG
  85. Language                                 : Chinese
  86. Default                                  : Yes
  87. Forced                                   : No
  88. Text #2
  89. ID                                       : 5
  90. Format                                   : PGS
  91. Muxing mode                              : zlib
  92. Codec ID                                 : S_HDMV/PGS
  93. Codec ID/Info                            : Picture based subtitle format used on BDs/HD-DVDs
  94. Duration                                 : 1 h 42 min
  95. Bit rate                                 : 29.1 kb/s
  96. Count of elements                        : 2307
  97. Stream size                              : 21.4 MiB (0%)
  98. Title                                    : CHS
  99. Language                                 : Chinese
  100. Default                                  : No
  101. Forced                                   : No
  102. Text #3
  103. ID                                       : 6
  104. Format                                   : PGS
  105. Muxing mode                              : zlib
  106. Codec ID                                 : S_HDMV/PGS
  107. Codec ID/Info                            : Picture based subtitle format used on BDs/HD-DVDs
  108. Duration                                 : 1 h 42 min
  109. Bit rate                                 : 51.1 kb/s
  110. Count of elements                        : 2309
  111. Stream size                              : 37.6 MiB (0%)
  112. Title                                    : CHT&ENG
  113. Language                                 : Chinese
  114. Default                                  : No
  115. Forced                                   : No
  116. Text #4
  117. ID                                       : 7
  118. Format                                   : PGS
  119. Muxing mode                              : zlib
  120. Codec ID                                 : S_HDMV/PGS
  121. Codec ID/Info                            : Picture based subtitle format used on BDs/HD-DVDs
  122. Duration                                 : 1 h 42 min
  123. Bit rate                                 : 30.0 kb/s
  124. Count of elements                        : 2307
  125. Stream size                              : 22.1 MiB (0%)
  126. Title                                    : CHT
  127. Language                                 : Chinese
  128. Default                                  : No
  129. Forced                                   : No
  130. Menu
  131. 00:00:00.000                             : en:Chapter 01
  132. 00:04:00.866                             : en:Chapter 02
  133. 00:11:39.157                             : en:Chapter 03
  134. 00:17:19.914                             : en:Chapter 04
  135. 00:22:33.352                             : en:Chapter 05
  136. 00:27:30.983                             : en:Chapter 06
  137. 00:34:24.729                             : en:Chapter 07
  138. 00:39:14.936                             : en:Chapter 08
  139. 00:44:15.069                             : en:Chapter 09
  140. 00:51:18.617                             : en:Chapter 10
  141. 00:57:15.140                             : en:Chapter 11
  142. 01:03:49.784                             : en:Chapter 12
  143. 01:10:07.537                             : en:Chapter 13
  144. 01:15:21.350                             : en:Chapter 14
  145. 01:24:42.160                             : en:Chapter 15
  146. 01:30:53.573                             : en:Chapter 16
  147. 01:35:59.462                             : en:Chapter 17
  148. 01:41:24.829                             : en:Chapter 18
复制代码




TAGS 喜剧 爱情 音乐 /

磁力链:
  • magnet:?xt=urn:btih:94D82F73F0924168B49E8FD0AAAE79B13FF940FC
上传的附件:
BT9527电影天堂 1、BT9527电影天堂提供的BT文件均来源于互联网抓取,只供网友学习交流、技术提升使用。
2、我们遵守BitTorrent点对点协议原则,任何版权问题请联系原资源发布商,我们不处理任何版权纠纷,谢谢!如有争议请联系邮箱:BT9527#hotmail.com(#换成@)
3、如果您发现某页面或地址有错误,请联系站长邮箱BT9527#hotmail.com(#换成@),我们会尽快处理。您的热心是对BT9527电影天堂最大的支持。
4、本站建议去正规影院观看电影以支持电影行业发展。
最新回复 (0)

你可以在 登录 or 注册 后,对此帖发表评论!

返回
发新帖