异灵灵异2002[国语配音/中文字幕].2002.2001.Bluray.1080p.LPCM2.0.x265.10bit-CTRLHD 5.76GB

版主小s 1月前 147



◎译  名 异灵灵异2002 / 异灵灵异-2002
◎片  名 2002
◎年  代 2001
◎产  地 中国香港
◎类  别 喜剧 / 爱情 / 科幻 / 恐怖
◎语  言 粤语
◎上映日期 2001-12-15
◎IMDb链接 https://www.imdb.com/title/tt0294251/
◎豆瓣评分 6.7/10 (8698人评价)
◎豆瓣链接 https://movie.douban.com/subject/1298065/
◎片  长 96分钟
◎导  演 叶伟信 Wilson Yip (id:1274472)
◎编  剧 谷德昭 Vincent Kok (id:1025526)
       叶伟信 Wilson Yip (id:1274472)
       郭子健 Derek Kwok Chi-kin  (id:1274244)
       司徒锦源 Kam-Yuen Szeto (id:1298766)
◎演  员 谢霆锋 Nicholas Tse (id:1050053)
       冯德伦 Stephen Fung (id:1023278)
       罗家英 Kar-Ying Law (id:1108968)
       李彩桦 Rain Li (id:1042200)
       李灿森 Sam Lee (id:1028522)
       方力申 Lik-Sun Fong (id:1171687)
       安雅 Anya (id:1005185)
       李力持 Lik-Chi Lee (id:1274246)
       侯焕玲 Woon Ling Hau (id:1275424)
       谷德昭 Vincent Kok (id:1025526)
       丹妮拉·格拉翰 Danielle Graham (id:1010865)
       谷德昭 Vincent Kok (id:1025526)
       韦启良 Yee-Leung Wai (id:1300261)
       潘恒生 Hang-Sang Poon (id:1294721)
       张嘉辉 Ka-fai Cheung (id:1280620)
       麦国强 Kenneth Mak (id:1290782)
       曾伯铨 Steven Tsang (id:1310849)
       邓汝好 Pat Tang Yu-Ho (id:1403989)
       黄庆勋 Danny Wong (id:1400030)
       黄宏显 Eddy Wong (id:1302455)
       黄宏达 Victor Wong (id:1307421)
       邹文怀 Raymond Chow (id:1016883)

◎简  介
  警方设立一个名为“2002”的部门,专门对付祸害人间的游魂野鬼。部门内潮(谢霆锋 饰)是拥有阴阳眼的人类,Sam(李灿森 饰)则是个鬼魂,整个部门便由这一人一鬼组成。期间他们遇到了形形式式的加害人类的鬼魂,并一一收复了。后来潮受死去的四婆所托,帮忙照顾住院中的孙女Rain(李彩桦 饰)。潮爱上了医院中的一名护士。但他要专心于Sam一起对付水鬼,这场争斗将决定他们的生死。

◎获奖情况 (共1项)
  第21届香港电影金像奖 (2002)
  最佳视觉效果(提名)
   └──黄宏达 (id:1307421)

  1. ##### MediaInfo ######
  2. General
  3. Unique ID                                : 297485875526259386245776302037164706208 (0xDFCDB210EE04FBB54843DD992E9149A0)
  4. Complete name                            : 2002.2001.Bluray.1080p.LPCM2.0.x265.10bit-CTRLHD.mkv
  5. Format                                   : Matroska
  6. Format version                           : Version 4
  7. File size                                : 5.76 GiB
  8. Duration                                 : 1 h 36 min
  9. Overall bit rate                         : 8 519 kb/s
  10. Encoded date                             : UTC 2022-05-27 13:08:34
  11. Writing application                      : mkvmerge v62.0.0 ('Apollo') 64-bit
  12. Writing library                          : libebml v1.4.2 + libmatroska v1.6.4
  13. Video
  14. ID                                       : 1
  15. Format                                   : HEVC
  16. Format/Info                              : High Efficiency Video Coding
  17. Format profile                           : Main 10@L5@Main
  18. Codec ID                                 : V_MPEGH/ISO/HEVC
  19. Duration                                 : 1 h 36 min
  20. Bit rate                                 : 5 417 kb/s
  21. Width                                    : 1 920 pixels
  22. Height                                   : 1 080 pixels
  23. Display aspect ratio                     : 16:9
  24. Frame rate mode                          : Constant
  25. Frame rate                               : 24.000 FPS
  26. Color space                              : YUV
  27. Chroma subsampling                       : 4:2:0
  28. Bit depth                                : 10 bits
  29. Bits/(Pixel*Frame)                       : 0.109
  30. Stream size                              : 3.66 GiB (64%)
  31. Writing library                          : x265 3.5+10-82786fccc:[Windows][MSVC 1929][64 bit] 10bit
  32. Encoding settings                        : cpuid=533541111039 / frame-threads=5 / numa-pools=36,36 / wpp / no-pmode / no-pme / no-psnr / no-ssim / log-level=2 / input-csp=1 / input-res=1920x1080 / interlace=0 / total-frames=0 / level-idc=0 / high-tier=1 / uhd-bd=0 / ref=6 / no-allow-non-conformance / repeat-headers / annexb / no-aud / no-eob / no-eos / no-hrd / info / hash=0 / no-temporal-layers / no-open-gop / min-keyint=24 / keyint=250 / gop-lookahead=0 / bframes=8 / b-adapt=2 / b-pyramid / bframe-bias=0 / rc-lookahead=24 / lookahead-slices=6 / NTMzNTQ=uuDQuD2mJt9fsCf / scenecut=40 / hist-scenecut=0 / radl=0 / no-splice / no-intra-refresh / ctu=64 / min-cu-size=8 / no-rect / no-amp / max-tu-size=32 / tu-inter-depth=1 / tu-intra-depth=1 / limit-tu=0 / rdoq-level=0 / dynamic-rd=0.00 / no-ssim-rd / signhide / no-tskip / nr-intra=0 / nr-inter=0 / no-constrained-intra / no-strong-intra-smoothing / max-merge=3 / limit-refs=1 / no-limit-modes / me=2 / subme=7 / merange=48 / temporal-mvp / no-frame-dup / no-hme / weightp / weightb / no-analyze-src-pics / deblock=0:0 / sao / no-sao-non-deblock / rd=4 / selective-sao=4 / early-skip / rskip / no-fast-intra / no-tskip-fast / no-cu-lossless / b-intra / no-splitrd-skip / rdpenalty=0 / psy-rd=2.00 / psy-rdoq=0.00 / no-rd-refine / no-lossless / cbqpoffs=0 / crqpoffs=0 / rc=crf / crf=14.8 / qcomp=0.60 / qpstep=4 / stats-write=0 / stats-read=0 / ipratio=1.40 / pbratio=1.30 / aq-mode=3 / aq-strength=1.00 / cutree / zone-count=0 / no-strict-cbr / qg-size=32 / no-rc-grain / qpmax=69 / qpmin=0 / no-const-vbv / sar=0 / overscan=0 / videoformat=5 / range=0 / colorprim=2 / transfer=2 / colormatrix=2 / chromaloc=0 / display-window=0 / cll=0,0 / min-luma=0 / max-luma=1023 / log2-max-poc-lsb=8 / vui-timing-info / vui-hrd-info / slices=1 / no-opt-qp-pps / no-opt-ref-list-length-pps / no-multi-pass-opt-rps / scenecut-bias=0.05 / hist-threshold=0.03 / no-opt-cu-delta-qp / aq-motion / no-hdr10 / no-hdr10-opt / no-dhdr10-opt / no-idr-recovery-sei / analysis-reuse-level=0 / analysis-save-reuse-level=0 / analysis-load-reuse-level=0 / scale-factor=0 / refine-intra=0 / refine-inter=0 / refine-mv=1 / refine-ctu-distortion=0 / no-limit-sao / ctu-info=0 / no-lowpass-dct / refine-analysis-type=0 / copy-pic=1 / max-ausize-factor=1.0 / no-dynamic-refine / no-single-sei / hevc-aq / no-svt / no-field / qp-adaptation-range=1.00 / scenecut-aware-qp=0conformance-window-offsets / right=0 / bottom=0 / NTMzNTQ= / decoder-max-rate=0 / no-vbv-live-multi-pass
  33. Default                                  : Yes
  34. Forced                                   : No
  35. Audio #1
  36. ID                                       : 2
  37. Format                                   : PCM
  38. Format settings                          : Little / Signed
  39. Codec ID                                 : A_PCM/INT/LIT
  40. Duration                                 : 1 h 36 min
  41. Bit rate mode                            : Constant
  42. Bit rate                                 : 1 536 kb/s
  43. Channel(s)                               : 2 channels
  44. Sampling rate                            : 48.0 kHz
  45. Frame rate                               : 25.000 FPS (1920 SPF)
  46. Bit depth                                : 16 bits
  47. Stream size                              : 1.04 GiB (18%)
  48. Language                                 : Chinese
  49. Default                                  : Yes
  50. Forced                                   : No
  51. Audio #2
  52. ID                                       : 3
  53. Format                                   : PCM
  54. Format settings                          : Little / Signed
  55. Codec ID                                 : A_PCM/INT/LIT
  56. Duration                                 : 1 h 36 min
  57. Bit rate mode                            : Constant
  58. Bit rate                                 : 1 536 kb/s
  59. Channel(s)                               : 2 channels
  60. Sampling rate                            : 48.0 kHz
  61. Frame rate                               : 25.000 FPS (1920 SPF)
  62. Bit depth                                : 16 bits
  63. Stream size                              : 1.04 GiB (18%)
  64. Language                                 : Chinese
  65. Default                                  : Yes
  66. Forced                                   : No
  67. Text #1
  68. ID                                       : 4
  69. Format                                   : PGS
  70. Muxing mode                              : zlib
  71. Codec ID                                 : S_HDMV/PGS
  72. Codec ID/Info                            : Picture based subtitle format used on BDs/HD-DVDs
  73. Duration                                 : 1 h 32 min
  74. Bit rate                                 : 27.3 kb/s
  75. Count of elements                        : 1596
  76. Stream size                              : 18.2 MiB (0%)
  77. Language                                 : Chinese
  78. Default                                  : Yes
  79. Forced                                   : No
  80. Text #2
  81. ID                                       : 5
  82. Format                                   : PGS
  83. Muxing mode                              : zlib
  84. Codec ID                                 : S_HDMV/PGS
  85. Codec ID/Info                            : Picture based subtitle format used on BDs/HD-DVDs
  86. Duration                                 : 1 h 32 min
  87. Bit rate                                 : 27.9 kb/s
  88. Count of elements                        : 1596
  89. Stream size                              : 18.5 MiB (0%)
  90. Language                                 : Chinese
  91. Default                                  : Yes
  92. Forced                                   : No
  93. Text #3
  94. ID                                       : 6
  95. Format                                   : PGS
  96. Muxing mode                              : zlib
  97. Codec ID                                 : S_HDMV/PGS
  98. Codec ID/Info                            : Picture based subtitle format used on BDs/HD-DVDs
  99. Duration                                 : 1 h 32 min
  100. Bit rate                                 : 25.6 kb/s
  101. Count of elements                        : 1596
  102. Stream size                              : 17.0 MiB (0%)
  103. Language                                 : English
  104. Default                                  : Yes
  105. Forced                                   : No
  106. Menu
  107. 00:00:00.000                             : en:第 01 章
  108. 00:07:19.000                             : en:第 02 章
  109. 00:17:21.042                             : en:第 03 章
  110. 00:25:17.792                             : en:第 04 章
  111. 00:32:09.500                             : en:第 05 章
  112. 00:42:58.417                             : en:第 06 章
  113. 00:51:35.208                             : en:第 07 章
  114. 01:00:05.458                             : en:第 08 章
  115. 01:07:51.083                             : en:第 09 章
  116. 01:15:25.000                             : en:第 10 章
  117. 01:22:17.333                             : en:第 11 章
  118. 01:30:50.708                             : en:第 12 章
复制代码




TAGS 恐怖 科幻 喜剧 爱情 /

磁力链:
  • magnet:?xt=urn:btih:C7E4DE4B5AAAA44662912A00F9D111266F4899B3
上传的附件:
BT9527电影天堂 1、BT9527电影天堂提供的BT文件均来源于互联网抓取,只供网友学习交流、技术提升使用。
2、我们遵守BitTorrent点对点协议原则,任何版权问题请联系原资源发布商,我们不处理任何版权纠纷,谢谢!如有争议请联系邮箱:BT9527#hotmail.com(#换成@)
3、如果您发现某页面或地址有错误,请联系站长邮箱BT9527#hotmail.com(#换成@),我们会尽快处理。您的热心是对BT9527电影天堂最大的支持。
4、本站建议去正规影院观看电影以支持电影行业发展。
最新回复 (0)

你可以在 登录 or 注册 后,对此帖发表评论!

返回