37号[简繁字幕].Nommer.37.AKA.2018.1080p.BluRay.DTS.x265-10bit-ENTHD 8.10GB

版主小s 1月前 149



◎译  名 37号 / 37号房客(台) / Number 37
◎片  名 Nommer 37
◎年  代 2018
◎产  地 南非
◎类  别 惊悚
◎语  言 南非语
◎上映日期 2018-06-01(南非)
◎IMDb链接 https://www.imdb.com/title/tt6985448/
◎豆瓣链接 https://movie.douban.com/subject/30262306/
◎片  长 110分钟
◎演  员 德翁·洛茨 Deon Lotz (id:1341001)
       莫妮克·洛克曼 Monique Rockman (id:1451722)

◎简  介
  Entrapped in his apartment, Randal Hendricks, a recent paraplegic, is given a gift of binoculars by his devoted girlfriend, Pam. But Randal is in financial debt to Emmie, a sadistic loan ...

  1. ##### MediaInfo ######
  2. General
  3. Unique ID                                : 118467862672653564784348737605974592103 (0x59201496336589BBE2782E868BAF8A67)
  4. Complete name                            : Nommer.37.AKA.2018.1080p.BluRay.DTS.x265-10bit-ENTHD.mkv
  5. Format                                   : Matroska
  6. Format version                           : Version 4
  7. File size                                : 8.10 GiB
  8. Duration                                 : 1 h 50 min
  9. Overall bit rate                         : 10.5 Mb/s
  10. Movie name                               : Nommer 37 AKA 2018 1080p BluRay DTS x265-10bit-HDS
  11. Encoded date                             : UTC 2022-05-25 23:27:52
  12. Writing application                      : mkvmerge v67.0.0 ('Under Stars') 64-bit
  13. Writing library                          : libebml v1.4.2 + libmatroska v1.6.4
  14. Video
  15. ID                                       : 1
  16. Format                                   : HEVC
  17. Format/Info                              : High Efficiency Video Coding
  18. Format profile                           : Main 10@L5.1@High
  19. Codec ID                                 : V_MPEGH/ISO/HEVC
  20. Duration                                 : 1 h 50 min
  21. Bit rate                                 : 8 925 kb/s
  22. Width                                    : 1 920 pixels
  23. Height                                   : 804 pixels
  24. Display aspect ratio                     : 2.40:1
  25. Frame rate mode                          : Constant
  26. Frame rate                               : 24.000 FPS
  27. Color space                              : YUV
  28. Chroma subsampling                       : 4:2:0
  29. Bit depth                                : 10 bits
  30. Bits/(Pixel*Frame)                       : 0.241
  31. Stream size                              : 6.92 GiB (85%)
  32. Title                                    : bbdsxl@HDSky
  33. Writing library                          : x265 - H.265/HEVC codec
  34. Default                                  : Yes
  35. Forced                                   : No
  36. Audio
  37. ID                                       : 2
  38. Format                                   : DTS
  39. Format/Info                              : Digital Theater Systems
  40. Codec ID                                 : A_DTS
  41. Duration                                 : 1 h 50 min
  42. Bit rate mode                            : Constant
  43. Bit rate                                 : 1 509 kb/s
  44. Channel(s)                               : 6 channels
  45. Channel layout                           : C L R Ls Rs LFE
  46. Sampling rate                            : 48.0 kHz
  47. Frame rate                               : 93.750 FPS (512 SPF)
  48. Bit depth                                : 24 bits
  49. Compression mode                         : Lossy
  50. Stream size                              : 1.17 GiB (14%)
  51. Title                                    : English
  52. Language                                 : English
  53. Default                                  : Yes
  54. Forced                                   : No
  55. Text #1
  56. ID                                       : 3
  57. Format                                   : PGS
  58. Muxing mode                              : zlib
  59. Codec ID                                 : S_HDMV/PGS
  60. Codec ID/Info                            : Picture based subtitle format used on BDs/HD-DVDs
  61. Duration                                 : 1 h 46 min
  62. Bit rate                                 : 14.8 kb/s
  63. Count of elements                        : 1732
  64. Stream size                              : 11.2 MiB (0%)
  65. Title                                    : CHS
  66. Language                                 : Chinese
  67. Default                                  : Yes
  68. Forced                                   : No
  69. Text #2
  70. ID                                       : 4
  71. Format                                   : PGS
  72. Muxing mode                              : zlib
  73. Codec ID                                 : S_HDMV/PGS
  74. Codec ID/Info                            : Picture based subtitle format used on BDs/HD-DVDs
  75. Duration                                 : 1 h 46 min
  76. Bit rate                                 : 15.2 kb/s
  77. Count of elements                        : 1732
  78. Stream size                              : 11.6 MiB (0%)
  79. Title                                    : CHT
  80. Language                                 : Chinese
  81. Default                                  : Yes
  82. Forced                                   : No
  83. Menu
  84. 00:00:00.000                             : en:Chapter 01
  85. 00:08:16.542                             : en:Chapter 02
  86. 00:16:58.625                             : en:Chapter 03
  87. 00:28:32.583                             : en:Chapter 04
  88. 00:36:31.125                             : en:Chapter 05
  89. 00:46:51.083                             : en:Chapter 06
  90. 00:55:23.208                             : en:Chapter 07
  91. 01:06:11.833                             : en:Chapter 08
  92. 01:15:01.667                             : en:Chapter 09
  93. 01:24:38.333                             : en:Chapter 10
  94. 01:32:38.458                             : en:Chapter 11
  95. 01:41:14.125                             : en:Chapter 12
复制代码




TAGS 惊悚

磁力链:
  • magnet:?xt=urn:btih:3D98B58E8B77EF0386EFB65B532E53781C2E967C
上传的附件:
BT9527电影天堂 1、BT9527电影天堂提供的BT文件均来源于互联网抓取,只供网友学习交流、技术提升使用。
2、我们遵守BitTorrent点对点协议原则,任何版权问题请联系原资源发布商,我们不处理任何版权纠纷,谢谢!如有争议请联系邮箱:BT9527#hotmail.com(#换成@)
3、如果您发现某页面或地址有错误,请联系站长邮箱BT9527#hotmail.com(#换成@),我们会尽快处理。您的热心是对BT9527电影天堂最大的支持。
4、本站建议去正规影院观看电影以支持电影行业发展。
最新回复 (0)

你可以在 登录 or 注册 后,对此帖发表评论!

返回
发新帖