剑雨[国语音轨/中英字幕].Reign.of.Assassins.2010.BluRay.1080p.x265.10bit.2Audio-MiniHD 6.39GB

版主小s 1月前 160



◎译  名 剑雨 / 剑雨江湖 / Reign of Assassins
◎年  代 2010
◎产  地 中国大陆 / 中国香港 / 中国台湾
◎类  别 动作 / 爱情 / 武侠 / 古装
◎语  言 汉语普通话
◎上映日期 2010-09-28(中国大陆) / 2010-09-03(威尼斯电影节)
◎IMDb链接 https://www.imdb.com/title/tt1460743/
◎豆瓣评分 7.5/10 (189898人评价)
◎豆瓣链接 https://movie.douban.com/subject/3813779/
◎片  长 120分钟
◎导  演 苏照彬 Chao-Bin Su (id:1274731)
       吴宇森 John Woo (id:1027853)
◎编  剧 苏照彬 Chao-Bin Su (id:1274731)
◎演  员 杨紫琼 Michelle Yeoh (id:1022664)
       郑雨盛 Woo-sung Jung (id:1032365)
       王学圻 Xueqi Wang (id:1054562)
       徐熙媛 Barbie Hsu (id:1027645)
       余文乐 Shawn Yue (id:1041510)
       戴立忍 Leon Dai (id:1023718)
       鲍起静 Hee Ching Paw (id:1274229)
       林熙蕾 Kelly Lin (id:1041368)
       郭晓东 Xiaodong Guo (id:1274230)
       江一燕 Yiyan Jiang (id:1274286)
       吴佩慈 Pace Wu (id:1028811)
       李宗翰 Zonghan Li (id:1274732)
       金士杰 Shih-Chieh King (id:1275482)
       吴飞霞 Angeles Woo (id:1322423)
       金培达 Peter Kam (id:1288082)
       林珈妤 Carrie Lin (id:1398066)
       邢瀚卿 Hanqing Xing (id:1375845)
       秦卫东 Weidong Qin  (id:1318155)
       游本昌 Benchang You (id:1313934)
       马书良 Shuliang Ma (id:1313512)
       由立平 Liping You (id:1318573)
       王德顺 Deshun Wang (id:1316770)
       陈奇 Qi Chen (id:1317069)
       阮志强 Zhiqiang Ruan (id:1419439)
       黄志明 Chih-ming Huang (id:1325051)
       吴宇森 John Woo (id:1027853)
       杨紫琼 Michelle Yeoh (id:1022664)
       何丽嫦 Lorraine Ho (id:1418364)
       金培达 Peter Kam (id:1288082)
       黎耀辉 Yiu-Fai Lai (id:1289265)
       杨振宇 Zhenyu Yang (id:1424278)
       黄永恒 Wing-Hung Wong (id:1300411)
       黄岳泰 Arthur Wong (id:1301185)
       张嘉辉 Ka-fai Cheung (id:1280620)
       逯鲁 Lu Lu (id:1417392)
       杨百贵 Baigui Yang (id:1328642)
       苏国豪 Simon So (id:1328643)
       和田惠美 Emi Wada (id:1033613)
       何威 Wei He (id:1304355)
       张家华 Kawah Cheung (id:1337684)
       董玮 Wai Tung (id:1299617)
       陈诗颖 Shih-Ying Chen (id:1358338)
       李昱孚 Yufu Li (id:1355419)
       苏丽媚 Li Mei Su (id:1368971)
       石占杰 Zhanjie Shi (id:1374645)

◎简  介
  八百年前,天竺人罗摩来至中原弘法,其死后尸体被人盗取并分为两部分。传说拿到罗摩尸体的人能练成绝世武功,因此江湖上风波骤起。时有转轮王(王学圻 饰)操控的黑石杀手集团,专为朝廷杀害谋逆相左之人。转轮王率徒众夜袭藏匿半具达摩尸首的首辅张海端(李庆祥 饰)宅邸,但是他的手下细雨 (林熙蕾 饰)却带着残尸绝走江湖,致令转轮王发出江湖追杀令,引出一阵血雨腥风。                                    
                                为避追杀,细雨易容,更名曾静(杨紫琼 饰),逃亡期间结识了木讷善良的江阿生(郑宇成 饰)。一段时间相处,二人渐渐萌生感情,更喜结连理。但是江湖恩怨,因蔓不断,怎可轻易了结……

◎获奖情况 (共21项)
  第30届香港电影金像奖 (2011)
  最佳电影(提名)
  最佳导演(提名)
   └──苏照彬 (id:1274731)
  最佳男配角(提名)
   └──王学圻 (id:1054562)
  最佳摄影(提名)
   └──黄永恒 (id:1300411)
  最佳剪接(提名)
   └──张嘉辉 (id:1280620)
  最佳美术指导(提名)
  最佳服装造型设计(提名)
   └──和田惠美 (id:1033613)
  最佳动作设计(提名)
   └──董玮 (id:1299617)
  最佳原创电影音乐(提名)
   └──金培达 (id:1288082)
  最佳原创电影歌曲(提名)
  最佳视觉效果(提名)
   └──胡升忠 (id:1283957)

  第14届中国电影华表奖 (2011)
  优秀境外华裔女演员奖(提名)
   └──杨紫琼 (id:1022664)
  优秀合拍片奖(提名)

  第5届亚洲电影大奖 (2011)
  我最喜爱的男女主角 我最喜爱的女主角(提名)
   └──杨紫琼 (id:1022664)
  最佳女主角(提名)
   └──杨紫琼 (id:1022664)
  最佳编剧(提名)
   └──苏照彬 (id:1274731)
  最佳原创音乐(提名)

  第18届北京大学生电影节 (2011)
  最佳导演奖(提名)
   └──苏照彬 (id:1274731)
  最佳观赏效果奖(提名)

  第2届金扫帚奖 (2010)
  最令人失望女演员
   └──徐熙媛 (id:1027645)

  第1届豆瓣电影鑫像奖 (2011)
  豆渣单元 最渣女演员(华语)
   └──徐熙媛 (id:1027645)

  1. ##### MediaInfo ######
  2. General
  3. Unique ID                                : 239303578994288558701829290401585018026 (0xB408315F2B4374D4BE1D2DF307B1B4AA)
  4. Complete name                            : Reign.of.Assassins.2010.BluRay.1080p.x265.10bit.2Audio-MiniHD.mkv
  5. Format                                   : Matroska
  6. Format version                           : Version 4
  7. File size                                : 6.39 GiB
  8. Duration                                 : 1 h 59 min
  9. Overall bit rate                         : 7 632 kb/s
  10. Encoded date                             : UTC 2017-07-17 13:03:41
  11. Writing application                      : mkvmerge v11.0.0 ('Alive') 64bit
  12. Writing library                          : libebml v1.3.4 + libmatroska v1.4.5
  13. Video
  14. ID                                       : 1
  15. Format                                   : HEVC
  16. Format/Info                              : High Efficiency Video Coding
  17. Codec ID                                 : V_MPEGH/ISO/HEVC
  18. Duration                                 : 1 h 59 min
  19. Bit rate                                 : 6 325 kb/s
  20. Width                                    : 1 920 pixels
  21. Height                                   : 816 pixels
  22. Display aspect ratio                     : 2.35:1
  23. Frame rate mode                          : Constant
  24. Frame rate                               : 24.000 FPS
  25. Bits/(Pixel*Frame)                       : 0.168
  26. Stream size                              : 5.29 GiB (83%)
  27. Default                                  : Yes
  28. Forced                                   : No
  29. Audio #1
  30. ID                                       : 2
  31. Format                                   : AC-3
  32. Format/Info                              : Audio Coding 3
  33. Commercial name                          : Dolby Digital
  34. Codec ID                                 : A_AC3
  35. Duration                                 : 1 h 59 min
  36. Bit rate mode                            : Constant
  37. Bit rate                                 : 640 kb/s
  38. Channel(s)                               : 6 channels
  39. Channel layout                           : L R C LFE Ls Rs
  40. Sampling rate                            : 48.0 kHz
  41. Frame rate                               : 31.250 FPS (1536 SPF)
  42. Compression mode                         : Lossy
  43. Stream size                              : 548 MiB (8%)
  44. Language                                 : Chinese
  45. Service kind                             : Complete Main
  46. Default                                  : Yes
  47. Forced                                   : No
  48. Audio #2
  49. ID                                       : 3
  50. Format                                   : AC-3
  51. Format/Info                              : Audio Coding 3
  52. Commercial name                          : Dolby Digital
  53. Codec ID                                 : A_AC3
  54. Duration                                 : 1 h 59 min
  55. Bit rate mode                            : Constant
  56. Bit rate                                 : 640 kb/s
  57. Channel(s)                               : 6 channels
  58. Channel layout                           : L R C LFE Ls Rs
  59. Sampling rate                            : 48.0 kHz
  60. Frame rate                               : 31.250 FPS (1536 SPF)
  61. Compression mode                         : Lossy
  62. Stream size                              : 548 MiB (8%)
  63. Language                                 : Chinese
  64. Service kind                             : Complete Main
  65. Default                                  : No
  66. Forced                                   : No
  67. Text #1
  68. ID                                       : 4
  69. Format                                   : PGS
  70. Muxing mode                              : zlib
  71. Codec ID                                 : S_HDMV/PGS
  72. Codec ID/Info                            : Picture based subtitle format used on BDs/HD-DVDs
  73. Duration                                 : 1 h 54 min
  74. Bit rate                                 : 8 552 b/s
  75. Count of elements                        : 2090
  76. Stream size                              : 7.00 MiB (0%)
  77. Language                                 : Chinese
  78. Default                                  : Yes
  79. Forced                                   : No
  80. Text #2
  81. ID                                       : 5
  82. Format                                   : PGS
  83. Muxing mode                              : zlib
  84. Codec ID                                 : S_HDMV/PGS
  85. Codec ID/Info                            : Picture based subtitle format used on BDs/HD-DVDs
  86. Duration                                 : 1 h 54 min
  87. Bit rate                                 : 9 465 b/s
  88. Count of elements                        : 2090
  89. Stream size                              : 7.74 MiB (0%)
  90. Language                                 : Chinese
  91. Default                                  : No
  92. Forced                                   : No
  93. Text #3
  94. ID                                       : 6
  95. Format                                   : PGS
  96. Muxing mode                              : zlib
  97. Codec ID                                 : S_HDMV/PGS
  98. Codec ID/Info                            : Picture based subtitle format used on BDs/HD-DVDs
  99. Duration                                 : 1 h 54 min
  100. Bit rate                                 : 7 764 b/s
  101. Count of elements                        : 2090
  102. Stream size                              : 6.35 MiB (0%)
  103. Language                                 : English
  104. Default                                  : No
  105. Forced                                   : No
  106. Menu
  107. 00:00:00.000                             : en:Chapter 01
  108. 00:06:17.164                             : en:Chapter 02
  109. 00:15:30.416                             : en:Chapter 03
  110. 00:21:36.750                             : en:Chapter 04
  111. 00:26:03.415                             : en:Chapter 05
  112. 00:30:47.458                             : en:Chapter 06
  113. 00:35:23.250                             : en:Chapter 07
  114. 00:41:37.875                             : en:Chapter 08
  115. 00:48:17.666                             : en:Chapter 09
  116. 00:54:15.500                             : en:Chapter 10
  117. 01:01:09.041                             : en:Chapter 11
  118. 01:04:53.333                             : en:Chapter 12
  119. 01:09:20.416                             : en:Chapter 13
  120. 01:19:03.666                             : en:Chapter 14
  121. 01:22:05.291                             : en:Chapter 15
  122. 01:29:34.457                             : en:Chapter 16
  123. 01:37:19.707                             : en:Chapter 17
  124. 01:44:56.125                             : en:Chapter 18
  125. 01:53:47.750                             : en:Chapter 19
  126. 01:55:47.250                             : en:Chapter 20
复制代码




TAGS 武侠 动作 古装 爱情 /

磁力链:
  • magnet:?xt=urn:btih:DE5C2E3EB468F99CC7B43B0B64F908381C8F46D7
上传的附件:
BT9527电影天堂 1、BT9527电影天堂提供的BT文件均来源于互联网抓取,只供网友学习交流、技术提升使用。
2、我们遵守BitTorrent点对点协议原则,任何版权问题请联系原资源发布商,我们不处理任何版权纠纷,谢谢!如有争议请联系邮箱:BT9527#hotmail.com(#换成@)
3、如果您发现某页面或地址有错误,请联系站长邮箱BT9527#hotmail.com(#换成@),我们会尽快处理。您的热心是对BT9527电影天堂最大的支持。
4、本站建议去正规影院观看电影以支持电影行业发展。
最新回复 (0)

你可以在 登录 or 注册 后,对此帖发表评论!

返回