刀锋战士3[国英多音轨/简繁英特效字幕].Blade.Trinity.2004.BluRay.1080p.x265.10bit.2Audio-MiniHD 5.95GB

版主小s 1月前 101



◎译  名 刀锋战士3 / 幽灵刺客III 终极尸杀(港) / 刀锋战士:三位一体 / 幽灵刺客3 / 刀锋3
◎片  名 Blade: Trinity
◎年  代 2004
◎产  地 美国
◎类  别 动作 / 科幻 / 恐怖
◎语  言 英语 / 世界语
◎上映日期 2004-12-08(美国)
◎IMDb链接 https://www.imdb.com/title/tt0359013/
◎豆瓣评分 6.7/10 (40488人评价)
◎豆瓣链接 https://movie.douban.com/subject/1308978/
◎片  长 113 分钟
◎导  演 大卫·S·高耶 David S. Goyer (id:1036537)
◎编  剧 大卫·S·高耶 David S. Goyer (id:1036537)
       马文·沃夫曼 Marv Wolfman (id:1045944)
       吉因·科兰 Gene Colan (id:1052260)
◎演  员 韦斯利·斯奈普斯 Wesley Snipes (id:1022591)
       克里斯·克里斯托佛森 Kris Kristofferson (id:1013728)
       多米尼克·珀塞尔 Dominic Purcell (id:1004605)
       杰西卡·贝尔 Jessica Biel (id:1035644)
       瑞安·雷诺兹 Ryan Reynolds (id:1053623)
       叶芳华 Fran?oise Yip (id:1049868)
       帕顿·奥斯瓦尔特 Patton Oswalt (id:1007015)
       张鹏 Peng Zhang (id:1307141)
       艾瑞卡·塞拉 Erica Cerra (id:1205124)
       约翰·阿什克 John Ashker (id:1014485)
       克莱·卡伦 Clay Cullen (id:1305071)
       詹姆斯·瑞马尔 James Remar (id:1013812)
       约翰·迈克尔·辛吉斯 John Michael Higgins (id:1009214)
       基马尼·雷·史密斯 Kimani Ray Smith (id:1032995)
       科特·图尔顿 Kett Turton (id:1153934)
       Steven McMichael Steven McMichael (id:1124465)
       保罗·安东尼 Paul Anthony (id:1215025)
       保罗·莱维斯克 Paul Levesque (id:1114923)
       亚利桑德罗·雷 Alejandro Rae (id:1222664)
       Michel Cook Michel Cook (id:1071269)
       科维西·阿梅扬 Kwesi Ameyaw (id:1056659)
       考乐姆·吉斯·雷尼 Callum Keith Rennie (id:1049641)
       克里斯·格拉克 Chris Gorak (id:1285166)
       娜塔莎·雷昂 Natasha Lyonne (id:1000096)
       埃里克·博高森 Eric Bogosian (id:1045034)
       帕克·波西 Parker Posey (id:1040522)
       加布里尔·贝瑞斯坦 Gabriel Beristain (id:1045610)
       卡西·贝德 Cascy Beddow (id:1185728)
       大卫·S·高耶 David S. Goyer (id:1036537)
       斯坦·李 Stan Lee (id:1013888)
       艾尔特·舍弗尔 Art Schaeffer (id:1296827)
       托比·艾默里奇 Toby Emmerich (id:1005136)
       韦斯利·斯奈普斯 Wesley Snipes (id:1022591)
       拉民·贾瓦迪 Ramin Djawadi (id:1302385)
       罗伯特·菲茨杰拉德·迪格斯 RZA (id:1009393)
       加布里尔·贝瑞斯坦 Gabriel Beristain (id:1045610)
       霍华德·E·史密斯 Howard E. Smith (id:1037969)
       Ronnie Yeskel Ronnie Yeskel (id:1301468)
       克里斯·格拉克 Chris Gorak (id:1285166)
       埃里克·弗雷泽 Eric Fraser (id:1284120)
       Laura Jean Shannon Laura Jean Shannon (id:1297314)
       西尔维亚·纳瓦 Sylvia Nava (id:1292952)
       基督.斯坦利 Christ Stanley (id:1298259)
       比尔·特雷扎基斯 Bill Terezakis (id:1299071)
       Jill Bailey Jill Bailey (id:1306260)
       迈克·伊利沙德 Mike Elizalde (id:1283113)
       Yoichi Art Sakamoto Yoichi Art Sakamoto (id:1140584)
       Lisa Love Lisa Love (id:1123006)
       埃迪·佩雷斯 Eddie Perez (id:1294285)
       大卫·马科维茨 David Markowitz (id:1125072)
       Annabelle Wilczur Annabelle Wilczur (id:1300901)
       维克·阿姆斯特朗 Vic Armstrong (id:1027958)
       Brynn Kinnee Brynn Kinnee (id:1177971)
       Eddy Hardy Eddy Hardy (id:1099652)
       Lori K. Peterson Lori K. Peterson (id:1136484)
       莱斯·伯恩斯汀 Les Bernstien (id:1278498)
       James Coulter James Coulter (id:1281373)
       克里斯·戴尔·康特 Chris Del Conte (id:1282169)
       丹·阿什顿 Dan Ashton (id:1187304)
       丹尼·布雷特 Danny Braet (id:1048843)
       吉姆·戈尔曼 Jim Gorman (id:1285203)
       Mike Hardison Mike Hardison (id:1286025)
        Alex M. Cacciarelli (id:1238499)
       安德鲁·罗伯茨 Andrew Roberts (id:1223036)
       Allan McKay Allan McKay (id:1220948)
       Scott Paquin Scott Paquin (id:1194416)
       Andy Tamandl Andy Tamandl (id:1168011)
       Juliet Verni Juliet Verni (id:1157787)
       Daniel Toscano Daniel Toscano (id:1155126)
       Clint Thorne Clint Thorne (id:1196120)
       折笠明 Akira Orikasa (id:1198934)
       彼得·比克·奇瓦诺维奇 Peter 'Beak' Cvijanovic (id:1281658)
       Niles Heckman Niles Heckman (id:1201648)
       Rob Meyers Rob Meyers (id:1212860)
       Martin Hilke Martin Hilke (id:1286616)
       Anthony Huljev Anthony Huljev (id:1044027)
       Greg Gladstone Greg Gladstone (id:1305203)
       杰罗姆·莫林 Jerome Morin (id:1307280)
       埃弗雷特·伯勒尔 Everett Burrell (id:1012845)
       John Vegher John Vegher (id:1307805)
       Patrick Kalyn Patrick Kalyn (id:1307995)
       迈克尔·乔伊斯 Michael Joyce (id:1008348)
       班诺特·吉拉尔 Benoit Girard (id:1308287)
       格尔泽格茨·扬卡蒂斯 Grzegorz Jonkajtys (id:1308932)
       菲·陈 Phi Tran (id:1309487)
       大卫·埃布纳 David Ebner (id:1302384)
       迪克·费朗 Deak Ferrand (id:1283613)
       Justin Mitchell Justin Mitchell (id:1292234)
       菲利普·摩西 Phillip Moses (id:1292593)
       雷·麦金太尔 Ray McIntyre Jr. (id:1291625)
       Troy James Miller Troy James Miller (id:1043425)
       Bradley Mullennix Bradley Mullennix (id:1305208)
       塔米·萨顿 Tammy Sutton (id:1298686)
       Adrien Van Viersen Adrien Van Viersen (id:1299858)
       Tobin Jones Tobin Jones (id:1198139)
       Scott Milne Scott Milne (id:1292046)

◎简  介
  叙利亚沙漠中,女吸血鬼丹尼卡(Parker Posey 饰)带领一队同类,深入古老的沙漠宫殿,意欲唤醒沉睡的吸血鬼之王——德雷克(Dominic Purcell 饰)。夜色中,刀锋(韦斯利?斯奈普斯 Wesley Snipes 饰)仍然与吸血鬼们进行着无休止的战斗,但他很快落入了丹尼卡的圈套,误杀了一名人类,因此被FBI探员威尔逊等人抓捕。与此同时,刀锋的老搭档惠斯勒之女阿比盖尔(Jessica Biel 饰)同汉尼拔金(Ryan Reynolds 饰)等年轻人秉持与刀锋相近的信念,组成了一支以自身为诱饵来消灭吸血鬼的队伍,他们将刀锋从FBI和丹尼卡手中救出,但后者对他们的胆大妄为嗤之以鼻,然而面对强大的吸血鬼王德雷克,他们不得不并肩作战……

  1. ##### MediaInfo ######
  2. General
  3. Unique ID                                : 192073588533668383395725148840522569218 (0x9080070EB72A018CB5AB9406C54E5602)
  4. Complete name                            : Blade.Trinity.2004.BluRay.1080p.x265.10bit.2Audio-MiniHD.mkv
  5. Format                                   : Matroska
  6. Format version                           : Version 4
  7. File size                                : 5.95 GiB
  8. Duration                                 : 2 h 2 min
  9. Overall bit rate                         : 6 956 kb/s
  10. Encoded date                             : UTC 2017-11-22 05:58:55
  11. Writing application                      : mkvmerge v17.0.0 ('Be Ur Friend') 64-bit
  12. Writing library                          : libebml v1.3.5 + libmatroska v1.4.8
  13. Video
  14. ID                                       : 1
  15. Format                                   : HEVC
  16. Format/Info                              : High Efficiency Video Coding
  17. Format profile                           : Main 10@L4@Main
  18. Codec ID                                 : V_MPEGH/ISO/HEVC
  19. Duration                                 : 2 h 2 min
  20. Bit rate                                 : 5 604 kb/s
  21. Width                                    : 1 920 pixels
  22. Height                                   : 816 pixels
  23. Display aspect ratio                     : 2.35:1
  24. Frame rate mode                          : Constant
  25. Frame rate                               : 23.976 (24000/1001/53354) FPS
  26. Color space                              : YUV
  27. Chroma subsampling                       : 4:2:0
  28. Bit depth                                : 10 bits
  29. Bits/(Pixel*Frame)                       : 0.149
  30. Stream size                              : 4.79 GiB (81%)
  31. Writing library                          : x265 2.0+10-5a0e139e2938:[Windows][GCC 6.1.0][64 bit] 10bit
  32. Encoding settings                        : wpp / ctu=32 / min-cu-size=8 / max-tu-size=16 / tu-intra-depth=2 / tu-inter-depth=2 / me=3 / subme=5 / merange=25 / rect / no-amp / max-merge=3 / temporal-mvp / no-early-skip / rskip / rdpenalty=1 / no-tskip / no-tskip-fast / no-strong-intra-smoothing / no-lossless / no-cu-lossless / no-constrained-intra / no-fast-intra / no-open-gop / no-temporal-layers / interlace=0 / keyint=360 / min-keyint=1 / NTMzNTQ=uuDQuD2mJt9fsCf / scenecut=40 / rc-lookahead=60 / lookahead-slices=4 / bframes=8 / bframe-bias=0 / b-adapt=2 / ref=5 / limit-refs=3 / limit-modes / weightp / weightb / aq-mode=3 / qg-size=16 / aq-strength=0.90 / cbqpoffs=-3 / crqpoffs=-3 / rd=4 / psy-rd=1.00 / rdoq-level=2 / psy-rdoq=5.00 / no-rd-refine / signhide / deblock=-1:-1 / no-sao / no-sao-non-deblock / b-pyramid / cutree / no-intra-refresh / rc=crf / crf=21.0 / qcomp=0.75 / qpmin=0 / qpmax=69 / qpstep=4 / ipratio=1.40 / pbratio=1.30
  33. Default                                  : Yes
  34. Forced                                   : No
  35. Color range                              : Limited
  36. Color primaries                          : BT.709
  37. Audio #1
  38. ID                                       : 2
  39. Format                                   : AC-3
  40. Format/Info                              : Audio Coding 3
  41. Commercial name                          : Dolby Digital
  42. Codec ID                                 : A_AC3
  43. Duration                                 : 2 h 2 min
  44. Bit rate mode                            : Constant
  45. Bit rate                                 : 640 kb/s
  46. Channel(s)                               : 6 channels
  47. Channel layout                           : L R C LFE Ls Rs
  48. Sampling rate                            : 48.0 kHz
  49. Frame rate                               : 31.250 FPS (1536 SPF)
  50. Compression mode                         : Lossy
  51. Stream size                              : 560 MiB (9%)
  52. Title                                    : 英语
  53. Language                                 : English
  54. Service kind                             : Complete Main
  55. Default                                  : Yes
  56. Forced                                   : No
  57. Audio #2
  58. ID                                       : 3
  59. Format                                   : AC-3
  60. Format/Info                              : Audio Coding 3
  61. Commercial name                          : Dolby Digital
  62. Codec ID                                 : A_AC3
  63. Duration                                 : 2 h 2 min
  64. Bit rate mode                            : Constant
  65. Bit rate                                 : 640 kb/s
  66. Channel(s)                               : 6 channels
  67. Channel layout                           : L R C LFE Ls Rs
  68. Sampling rate                            : 48.0 kHz
  69. Frame rate                               : 31.250 FPS (1536 SPF)
  70. Compression mode                         : Lossy
  71. Stream size                              : 560 MiB (9%)
  72. Title                                    : 东影上译国语
  73. Language                                 : Chinese
  74. Service kind                             : Complete Main
  75. Default                                  : No
  76. Forced                                   : No
  77. Text #1
  78. ID                                       : 4
  79. Format                                   : PGS
  80. Muxing mode                              : zlib
  81. Codec ID                                 : S_HDMV/PGS
  82. Codec ID/Info                            : Picture based subtitle format used on BDs/HD-DVDs
  83. Duration                                 : 2 h 1 min
  84. Bit rate                                 : 21.7 kb/s
  85. Count of elements                        : 2328
  86. Stream size                              : 18.9 MiB (0%)
  87. Title                                    : 英文
  88. Language                                 : English
  89. Default                                  : Yes
  90. Forced                                   : No
  91. Text #2
  92. ID                                       : 5
  93. Format                                   : PGS
  94. Muxing mode                              : zlib
  95. Codec ID                                 : S_HDMV/PGS
  96. Codec ID/Info                            : Picture based subtitle format used on BDs/HD-DVDs
  97. Duration                                 : 1 h 56 min
  98. Bit rate                                 : 21.2 kb/s
  99. Count of elements                        : 2570
  100. Stream size                              : 17.7 MiB (0%)
  101. Title                                    : 简体中文特效
  102. Language                                 : Chinese
  103. Default                                  : No
  104. Forced                                   : No
  105. Text #3
  106. ID                                       : 6
  107. Format                                   : PGS
  108. Muxing mode                              : zlib
  109. Codec ID                                 : S_HDMV/PGS
  110. Codec ID/Info                            : Picture based subtitle format used on BDs/HD-DVDs
  111. Duration                                 : 1 h 56 min
  112. Bit rate                                 : 22.1 kb/s
  113. Count of elements                        : 2570
  114. Stream size                              : 18.5 MiB (0%)
  115. Title                                    : 繁体中文特效
  116. Language                                 : Chinese
  117. Default                                  : No
  118. Forced                                   : No
  119. Text #4
  120. ID                                       : 7
  121. Format                                   : PGS
  122. Muxing mode                              : zlib
  123. Codec ID                                 : S_HDMV/PGS
  124. Codec ID/Info                            : Picture based subtitle format used on BDs/HD-DVDs
  125. Duration                                 : 1 h 56 min
  126. Bit rate                                 : 33.2 kb/s
  127. Count of elements                        : 2570
  128. Stream size                              : 27.8 MiB (0%)
  129. Title                                    : 简英双语特效
  130. Language                                 : Chinese
  131. Default                                  : No
  132. Forced                                   : No
  133. Text #5
  134. ID                                       : 8
  135. Format                                   : PGS
  136. Muxing mode                              : zlib
  137. Codec ID                                 : S_HDMV/PGS
  138. Codec ID/Info                            : Picture based subtitle format used on BDs/HD-DVDs
  139. Duration                                 : 1 h 56 min
  140. Bit rate                                 : 34.1 kb/s
  141. Count of elements                        : 2570
  142. Stream size                              : 28.5 MiB (0%)
  143. Title                                    : 繁英双语特效
  144. Language                                 : Chinese
  145. Default                                  : No
  146. Forced                                   : No
  147. Menu
  148. 00:00:00.000                             : en:Chapter 01
  149. 00:06:47.407                             : en:Chapter 02
  150. 00:12:59.361                             : en:Chapter 03
  151. 00:17:16.076                             : en:Chapter 04
  152. 00:18:48.418                             : en:Chapter 05
  153. 00:22:48.283                             : en:Chapter 06
  154. 00:27:05.623                             : en:Chapter 07
  155. 00:34:22.894                             : en:Chapter 08
  156. 00:41:07.673                             : en:Chapter 09
  157. 00:45:40.904                             : en:Chapter 10
  158. 00:50:55.886                             : en:Chapter 11
  159. 00:54:10.747                             : en:Chapter 12
  160. 00:58:08.026                             : en:Chapter 13
  161. 01:08:05.164                             : en:Chapter 14
  162. 01:17:54.711                             : en:Chapter 15
  163. 01:21:59.915                             : en:Chapter 16
  164. 01:28:32.056                             : en:Chapter 17
  165. 01:33:30.229                             : en:Chapter 18
  166. 01:41:31.710                             : en:Chapter 19
  167. 01:46:13.158                             : en:Chapter 20
  168. 01:50:45.013                             : en:Chapter 21
  169. 01:53:51.991                             : en:Chapter 22
复制代码




TAGS 动作 恐怖 科幻 /

磁力链:
  • magnet:?xt=urn:btih:E525CE3C802CFD5897BBD895109C2CC1BDB06014
上传的附件:
BT9527电影天堂 1、BT9527电影天堂提供的BT文件均来源于互联网抓取,只供网友学习交流、技术提升使用。
2、我们遵守BitTorrent点对点协议原则,任何版权问题请联系原资源发布商,我们不处理任何版权纠纷,谢谢!如有争议请联系邮箱:BT9527#hotmail.com(#换成@)
3、如果您发现某页面或地址有错误,请联系站长邮箱BT9527#hotmail.com(#换成@),我们会尽快处理。您的热心是对BT9527电影天堂最大的支持。
4、本站建议去正规影院观看电影以支持电影行业发展。
最新回复 (0)

你可以在 登录 or 注册 后,对此帖发表评论!

返回
发新帖