刀锋战士2[国英多音轨/简繁英特效字幕].Blade.II.2002.BluRay.1080p.x265.10bit.2Audio-MiniHD 7.55GB

版主小s 1月前 72



◎译  名 刀锋战士2 / 幽灵刺客2:变种复活(港) / 刀锋2
◎片  名 Blade II
◎年  代 2002
◎产  地 美国 / 德国
◎类  别 动作 / 科幻 / 恐怖
◎语  言 英语 / 罗马尼亚语 / 捷克语
◎上映日期 2002-03-22(美国)
◎IMDb链接 https://www.imdb.com/title/tt0187738/
◎豆瓣评分 7.0/10 (48049人评价)
◎豆瓣链接 https://movie.douban.com/subject/1306894/
◎片  长 117 分钟
◎导  演 吉尔莫·德尔·托罗 Guillermo del Toro (id:1027182)
◎编  剧 大卫·S·高耶 David S. Goyer (id:1036537)
       马文·沃夫曼 Marv Wolfman (id:1045944)
       吉因·科兰 Gene Colan (id:1052260)
◎演  员 韦斯利·斯奈普斯 Wesley Snipes (id:1022591)
       克里斯·克里斯托佛森 Kris Kristofferson (id:1013728)
       朗·普尔曼 Ron Perlman (id:1002688)
       蕾奥娜·维埃拉 Leonor Varela (id:1013889)
       诺曼·瑞杜斯 Norman Reedus (id:1013802)
       托马斯·克莱舒曼 Thomas Kretschmann (id:1049595)
       甄子丹 Donnie Yen (id:1025194)
       马特·斯查尔兹 Matt Schulze (id:1009388)
       拉迪斯拉夫·伯兰 Ladislav Beran (id:1005359)
       丹尼·约翰-儒勒 Danny John-Jules (id:1113851)
       雷伊-菲利普·桑托斯 Rey-Phillip Santos (id:1139147)
       Tomás B?hm Tomás B?hm (id:1191789)
       卡瑞尔·罗登 Karel Roden (id:1143398)
       保罗·卡塞 Paul Kasey (id:1177997)
       Marit Velle Kile Marit Velle Kile (id:1175701)
       扬·雷维 Jan Révai (id:1147892)
       谷垣健治 Kenji Tanigaki (id:1335515)
       杰米·威尔逊 Jamie Wilson (id:1166518)
       Jan Loukota Jan Loukota (id:1304662)
       Lennox Brown Lennox Brown (id:1072859)
       鲁克·高斯 Luke Goss (id:1027193)
       托尼·库兰 Tony Curran (id:1036415)
       Xuyen Valdivia Xuyen Valdivia (id:1299788)
       Daz Crawford Daz Crawford (id:1041318)
       马雷克·瓦苏特 Marek Vasut (id:1160681)
       圣地亚哥·塞古拉 Santiago Segura (id:1010740)
       斯坦·李 Stan Lee (id:1013888)
       帕特里克·J·帕尔默 Patrick J. Palmer (id:1017032)
       大卫·S·高耶 David S. Goyer (id:1036537)
       托比·艾默里奇 Toby Emmerich (id:1005136)
       韦斯利·斯奈普斯 Wesley Snipes (id:1022591)
       马可·贝尔崔米 Marco Beltrami (id:1027998)
       加布里尔·贝瑞斯坦 Gabriel Beristain (id:1045610)
       南希·福伊 Nancy Foy (id:1284103)
       Elinor Rose Galbraith Elinor Rose Galbraith (id:1008592)
       亚罗米尔·什瓦尔茨 Jaromír Svarc (id:1304280)
       Jeffrey Kushon Jeffrey Kushon (id:1038733)
       戴维·巴托 David Barto (id:1442961)
       Carol Spier Carol Spier (id:1298152)
       Dan Morski Dan Morski (id:1024804)
       Wendy Partridge Wendy Partridge (id:1294032)
       托马斯·弗洛茨 Thomas Floutz (id:1283888)
       Jeanette Freeman Jeanette Freeman (id:1284168)
       格雷格·方克 Greg Funk (id:1284333)
       Stuart Bray Stuart Bray (id:1069973)
       Gary Archer Gary Archer (id:1058559)
       Julie Wright Julie Wright (id:1301303)
       史蒂夫·约翰逊 Steve Johnson (id:1287818)
       马雷斯·朗根 Marese Langan (id:1289392)
       大卫·怀特 David White (id:1300803)
       David Dupuis David Dupuis (id:1282837)
       Michelle Taylor Michelle Taylor (id:1304342)
       安珀·西布利 Amber Sibley (id:1297542)
       Cristina Patterson Ceret Cristina Patterson Ceret (id:1133266)
       Pete Nilson Pete Nilson (id:1207836)
       Nigel Booth Nigel Booth (id:1278971)
       格伦·赫特雷克 Glenn Hetrick (id:1099792)
       Philip Seeger Philip Seeger (id:1205858)
       Mark Taylor Mark Taylor (id:1159673)
       李·奥尔洛夫 Lee Orloff (id:1293624)
       汤姆·吉本斯 Tom Gibbons (id:1284805)
       吉姆·戈尔曼 Jim Gorman (id:1285203)
       Paul Anderson Paul Anderson (id:1057626)
       Mike Hardison Mike Hardison (id:1286025)
       尼古拉斯·布鲁克斯 Nicholas Brooks (id:1045955)
       克雷格·海斯 Craig Hayes (id:1286277)
       Susan MacLeod Susan MacLeod (id:1290668)
       Andrea D'Amico Andrea D'Amico (id:1281681)
       Colin Epstein Colin Epstein (id:1086928)
       布莱恩·哈纳伯 Brian Hanable (id:1090997)
       Chris Ledesma Chris Ledesma (id:1174561)
       Neil Rubenstein Neil Rubenstein (id:1143460)
       Jason M. Halverson Jason M. Halverson (id:1189393)
       Chris Paizis Chris Paizis (id:1135852)
       Patrick Murphy Patrick Murphy (id:1129780)
       George Macri George Macri (id:1124081)
       Avtar Bains Avtar Bains (id:1277713)
       约翰·霍格沃德 Jan Hogevold (id:1101499)
       Dayne Cowan Dayne Cowan (id:1281396)
       Justin Martin Justin Martin (id:1291133)
       迈克尔·科瓦尔斯基 Michael Kowalski (id:1039757)
       Edward Irastorza Edward Irastorza (id:1039025)
       Matt Jacobs Matt Jacobs (id:1302232)
       Paul G. Thuriot Paul G. Thuriot (id:1302267)
       阿德里安·梅特泽拉尔 Adrian Metzelaar (id:1303871)
       Sven Jensen Sven Jensen (id:1304045)
       克里斯汀·王 Christine Wong (id:1304145)
       Todd Labonte Todd Labonte (id:1305816)
       Blair Clark Blair Clark (id:1006821)
       Dovi Anderson Dovi Anderson (id:1307512)
       迪克·费朗 Deak Ferrand (id:1283613)
       Gavin Toomey Gavin Toomey (id:1022425)
       Victor Wade Victor Wade (id:1302191)
       鲍勃·蒙罗 Bob Munroe (id:1292720)
       Peter S. Elliot Peter S. Elliot (id:1028988)
       胡安·卡洛斯·巴尔加斯 Juan Carlos Vargas (id:1038055)
       David Rosenthal David Rosenthal (id:1296109)
       David Sosalla David Sosalla (id:1298080)
       Vicki Wong Vicki Wong (id:1301201)
       James Furlong James Furlong (id:1185057)
       乔纳森·福克纳尔 Jonathan Fawkner (id:1302174)
       雷·麦金太尔 Ray McIntyre Jr. (id:1291625)
       甄子丹 Donnie Yen (id:1025194)

◎简  介
  自从阿伯拉罕(Kris Kristofferson 饰)被吸血鬼带走,日行者刀锋(韦斯利?斯奈普斯 Wesley Snipes 饰)就没有停止寻找这位父亲一样的老搭档,并终于在东欧将其救出。阿伯拉罕缺席的日子里,刀锋依靠新伙伴斯加德担任后勤支持。                                    
                                不久吸血鬼长老派人传递停战协议,只因吸血鬼中出现了新的变种——收割者,收割者同时以人类和吸血鬼为食,而且由于过快的新陈代谢导致他们需求惊人。刀锋为保全人类同意带领由长老之女内纱(Leonor Varela 饰)、雪人(甄子丹 饰)等组成的吸血鬼血帮部队,消灭收割者,但岂料这一切是吸血鬼的阴谋……

  1. ##### MediaInfo ######
  2. General
  3. Unique ID                                : 172885611293930108795603492183657887816 (0x82108EBD3345BF35958663B578B33848)
  4. Complete name                            : Blade.II.2002.BluRay.1080p.x265.10bit.2Audio-MiniHD.mkv
  5. Format                                   : Matroska
  6. Format version                           : Version 4
  7. File size                                : 7.55 GiB
  8. Duration                                 : 1 h 56 min
  9. Overall bit rate                         : 9 241 kb/s
  10. Encoded date                             : UTC 2017-11-22 04:41:04
  11. Writing application                      : mkvmerge v17.0.0 ('Be Ur Friend') 64-bit
  12. Writing library                          : libebml v1.3.5 + libmatroska v1.4.8
  13. Video
  14. ID                                       : 1
  15. Format                                   : HEVC
  16. Format/Info                              : High Efficiency Video Coding
  17. Format profile                           : Main 10@L4@Main
  18. Codec ID                                 : V_MPEGH/ISO/HEVC
  19. Duration                                 : 1 h 56 min
  20. Bit rate                                 : 7 909 kb/s
  21. Width                                    : 1 920 pixels
  22. Height                                   : 1 080 pixels
  23. Display aspect ratio                     : 16:9
  24. Frame rate mode                          : Constant
  25. Frame rate                               : 23.976 (24000/1001/53354) FPS
  26. Color space                              : YUV
  27. Chroma subsampling                       : 4:2:0
  28. Bit depth                                : 10 bits
  29. Bits/(Pixel*Frame)                       : 0.159
  30. Stream size                              : 6.46 GiB (86%)
  31. Writing library                          : x265 2.0+10-5a0e139e2938:[Windows][GCC 6.1.0][64 bit] 10bit
  32. Encoding settings                        : wpp / ctu=32 / min-cu-size=8 / max-tu-size=16 / tu-intra-depth=2 / tu-inter-depth=2 / me=3 / subme=5 / merange=25 / rect / no-amp / max-merge=3 / temporal-mvp / no-early-skip / rskip / rdpenalty=1 / no-tskip / no-tskip-fast / no-strong-intra-smoothing / no-lossless / no-cu-lossless / no-constrained-intra / no-fast-intra / no-open-gop / no-temporal-layers / interlace=0 / keyint=360 / min-keyint=1 / NTMzNTQ=uuDQuD2mJt9fsCf / scenecut=40 / rc-lookahead=60 / lookahead-slices=4 / bframes=8 / bframe-bias=0 / b-adapt=2 / ref=5 / limit-refs=3 / limit-modes / weightp / weightb / aq-mode=3 / qg-size=16 / aq-strength=0.90 / cbqpoffs=-3 / crqpoffs=-3 / rd=4 / psy-rd=1.00 / rdoq-level=2 / psy-rdoq=5.00 / no-rd-refine / signhide / deblock=-1:-1 / no-sao / no-sao-non-deblock / b-pyramid / cutree / no-intra-refresh / rc=crf / crf=21.0 / qcomp=0.75 / qpmin=0 / qpmax=69 / qpstep=4 / ipratio=1.40 / pbratio=1.30
  33. Default                                  : Yes
  34. Forced                                   : No
  35. Color range                              : Limited
  36. Color primaries                          : BT.709
  37. Audio #1
  38. ID                                       : 2
  39. Format                                   : AC-3
  40. Format/Info                              : Audio Coding 3
  41. Commercial name                          : Dolby Digital
  42. Codec ID                                 : A_AC3
  43. Duration                                 : 1 h 56 min
  44. Bit rate mode                            : Constant
  45. Bit rate                                 : 640 kb/s
  46. Channel(s)                               : 6 channels
  47. Channel layout                           : L R C LFE Ls Rs
  48. Sampling rate                            : 48.0 kHz
  49. Frame rate                               : 31.250 FPS (1536 SPF)
  50. Compression mode                         : Lossy
  51. Stream size                              : 535 MiB (7%)
  52. Title                                    : 英语
  53. Language                                 : English
  54. Service kind                             : Complete Main
  55. Default                                  : Yes
  56. Forced                                   : No
  57. Audio #2
  58. ID                                       : 3
  59. Format                                   : AC-3
  60. Format/Info                              : Audio Coding 3
  61. Commercial name                          : Dolby Digital
  62. Codec ID                                 : A_AC3
  63. Duration                                 : 1 h 56 min
  64. Bit rate mode                            : Constant
  65. Bit rate                                 : 640 kb/s
  66. Channel(s)                               : 6 channels
  67. Channel layout                           : L R C LFE Ls Rs
  68. Sampling rate                            : 48.0 kHz
  69. Frame rate                               : 31.250 FPS (1536 SPF)
  70. Compression mode                         : Lossy
  71. Delay relative to video                  : 1 s 0 ms
  72. Stream size                              : 535 MiB (7%)
  73. Title                                    : 东影上译国语
  74. Language                                 : Chinese
  75. Service kind                             : Complete Main
  76. Default                                  : No
  77. Forced                                   : No
  78. Text #1
  79. ID                                       : 4
  80. Format                                   : PGS
  81. Muxing mode                              : zlib
  82. Codec ID                                 : S_HDMV/PGS
  83. Codec ID/Info                            : Picture based subtitle format used on BDs/HD-DVDs
  84. Duration                                 : 1 h 56 min
  85. Bit rate                                 : 16.8 kb/s
  86. Count of elements                        : 1706
  87. Stream size                              : 13.9 MiB (0%)
  88. Title                                    : 英文
  89. Language                                 : English
  90. Default                                  : Yes
  91. Forced                                   : No
  92. Text #2
  93. ID                                       : 5
  94. Format                                   : PGS
  95. Muxing mode                              : zlib
  96. Codec ID                                 : S_HDMV/PGS
  97. Codec ID/Info                            : Picture based subtitle format used on BDs/HD-DVDs
  98. Duration                                 : 1 h 50 min
  99. Bit rate                                 : 15.1 kb/s
  100. Count of elements                        : 1702
  101. Stream size                              : 11.9 MiB (0%)
  102. Title                                    : 简体中文特效
  103. Language                                 : Chinese
  104. Default                                  : No
  105. Forced                                   : No
  106. Text #3
  107. ID                                       : 6
  108. Format                                   : PGS
  109. Muxing mode                              : zlib
  110. Codec ID                                 : S_HDMV/PGS
  111. Codec ID/Info                            : Picture based subtitle format used on BDs/HD-DVDs
  112. Duration                                 : 1 h 50 min
  113. Bit rate                                 : 15.8 kb/s
  114. Count of elements                        : 1702
  115. Stream size                              : 12.5 MiB (0%)
  116. Title                                    : 繁体中文特效
  117. Language                                 : Chinese
  118. Default                                  : No
  119. Forced                                   : No
  120. Text #4
  121. ID                                       : 7
  122. Format                                   : PGS
  123. Muxing mode                              : zlib
  124. Codec ID                                 : S_HDMV/PGS
  125. Codec ID/Info                            : Picture based subtitle format used on BDs/HD-DVDs
  126. Duration                                 : 1 h 50 min
  127. Bit rate                                 : 25.0 kb/s
  128. Count of elements                        : 1702
  129. Stream size                              : 19.8 MiB (0%)
  130. Title                                    : 简英双语特效
  131. Language                                 : Chinese
  132. Default                                  : No
  133. Forced                                   : No
  134. Text #5
  135. ID                                       : 8
  136. Format                                   : PGS
  137. Muxing mode                              : zlib
  138. Codec ID                                 : S_HDMV/PGS
  139. Codec ID/Info                            : Picture based subtitle format used on BDs/HD-DVDs
  140. Duration                                 : 1 h 50 min
  141. Bit rate                                 : 25.8 kb/s
  142. Count of elements                        : 1702
  143. Stream size                              : 20.4 MiB (0%)
  144. Title                                    : 繁英双语特效
  145. Language                                 : Chinese
  146. Default                                  : No
  147. Forced                                   : No
  148. Text #6
  149. ID                                       : 9
  150. Format                                   : UTF-8
  151. Codec ID                                 : S_TEXT/UTF8
  152. Codec ID/Info                            : UTF-8 Plain Text
  153. Duration                                 : 1 h 56 min
  154. Bit rate                                 : 20 b/s
  155. Count of elements                        : 995
  156. Stream size                              : 17.7 KiB (0%)
  157. Title                                    : 原盘繁体中文
  158. Language                                 : Chinese
  159. Default                                  : No
  160. Forced                                   : No
  161. Menu
  162. 00:00:00.000                             : en:Chapter 01
  163. 00:05:03.136                             : en:Chapter 02
  164. 00:08:45.358                             : en:Chapter 03
  165. 00:10:58.658                             : en:Chapter 04
  166. 00:17:00.644                             : en:Chapter 05
  167. 00:23:12.891                             : en:Chapter 06
  168. 00:27:50.377                             : en:Chapter 07
  169. 00:28:37.090                             : en:Chapter 08
  170. 00:30:03.885                             : en:Chapter 09
  171. 00:33:27.630                             : en:Chapter 10
  172. 00:52:03.537                             : en:Chapter 11
  173. 00:55:23.445                             : en:Chapter 12
  174. 00:58:13.615                             : en:Chapter 13
  175. 00:59:13.883                             : en:Chapter 14
  176. 01:03:29.764                             : en:Chapter 15
  177. 01:08:14.423                             : en:Chapter 16
  178. 01:14:30.257                             : en:Chapter 17
  179. 01:18:51.727                             : en:Chapter 18
  180. 01:22:00.790                             : en:Chapter 19
  181. 01:32:09.232                             : en:Chapter 20
  182. 01:38:02.751                             : en:Chapter 21
  183. 01:46:24.378                             : en:Chapter 22
  184. 01:48:28.460                             : en:Chapter 23
  185. 01:49:13.964                             : en:Chapter 24
复制代码




TAGS 动作 恐怖 科幻 /

磁力链:
  • magnet:?xt=urn:btih:04518DA95E546983561F60E6CE5E4362EAD80240
上传的附件:
BT9527电影天堂 1、BT9527电影天堂提供的BT文件均来源于互联网抓取,只供网友学习交流、技术提升使用。
2、我们遵守BitTorrent点对点协议原则,任何版权问题请联系原资源发布商,我们不处理任何版权纠纷,谢谢!如有争议请联系邮箱:BT9527#hotmail.com(#换成@)
3、如果您发现某页面或地址有错误,请联系站长邮箱BT9527#hotmail.com(#换成@),我们会尽快处理。您的热心是对BT9527电影天堂最大的支持。
4、本站建议去正规影院观看电影以支持电影行业发展。
最新回复 (0)

你可以在 登录 or 注册 后,对此帖发表评论!

返回
发新帖