忌日快乐[国英多音轨/中英字幕].Happy.Death.Day.2017.BluRay.2160p.DTS-HDMA5.1.HDR.x265.10bit-CTRLHD 20.03GB

版主小s 1月前 125



◎译  名 忌日快乐 / 死日快乐 / 吓到半死 / 死亡无限LOOP(港) / Again / Half to Death / Happy Birthdead / 生日惊魂
◎片  名 Happy Death Day
◎年  代 2017
◎产  地 美国
◎类  别 悬疑 / 惊悚 / 恐怖
◎语  言 英语
◎上映日期 2018-02-02(中国大陆) / 2017-10-13(美国)
◎IMDb链接 https://www.imdb.com/title/tt5308322/
◎豆瓣评分 7.0/10 (243440人评价)
◎豆瓣链接 https://movie.douban.com/subject/27027913/
◎片  长 96分钟
◎导  演 克里斯托弗·兰登 Christopher Landon (id:1032310)
◎编  剧 斯科特·洛布德尔 Scott Lobdell (id:1382495)
◎演  员 杰西卡·罗德 Jessica Rothe (id:1325899)
       伊瑟尔·布罗萨德 Israel Broussard (id:1023036)
       露比·莫迪恩 Ruby Modine (id:1365373)
       查尔斯·艾特肯 Charles Aitken (id:1254553)
       劳拉·克利夫顿 Laura Clifton (id:1382496)
       杰森·拜尔 Jason Bayle (id:1382497)
       罗布·梅洛 Rob Mello (id:1344027)
       瑞秋·马休斯 Rachel Matthews (id:1382498)
       拉姆齐·安德森 Ramsey Anderson (id:1382499)
       布雷迪·刘易斯 Brady Lewis (id:1382500)
       飞·武 Phi Vu (id:1382501)
       泰内娅·因崔亚戈 Tenea Intriago (id:1382502)
       布莱恩·克恩 Blaine Kern III (id:1382503)
       卡瑞尔拉·史密斯 Cariella Smith (id:1382504)
       吉米·冈萨雷斯 Jimmy Gonzales (id:1382505)
       比利·斯洛特 Billy Slaughter (id:1205890)
       唐娜·杜普兰提尔 Donna Duplantier (id:1344446)
       吉吉·埃内塔 GiGi Erneta (id:1377681)
       林赛·G·史密斯 Lindsey G. Smith (id:1382506)
       戴恩·罗兹 Dane Rhodes (id:1330957)
       凯莱布·斯比尔亚兹 Caleb Spillyards (id:1382507)
       蜜西·雅格 Missy Yager (id:1363752)
       川川 Tran Tran (id:1405786)
       吉奈尔·伊森 Jenelle Eason (id:1414783)
       朱莉娅·霍特 Julia Holt (id:1414787)
       迈克·霍华德 Mike Howard (id:1414789)
       詹姆斯·米勒 James Miller (id:1414790)
       杰弗里·帕特里克 Jeffrey Patrick (id:1414791)
       维多利亚·范·弗利特 Victoria Van Fleet (id:1414792)
       蕾·瓦蕾拉 Rae Varela (id:1414793)

◎简  介
  9月18日星期一,是放纵张扬的高校女孩泰莉·格尔布曼(杰西卡·罗德 Jessica Rothe 饰)的生日,同时也是她亡母的生日。前一晚她烂醉如泥,睡在了有一面之缘的男生卡特的房间。她醒来后回到宿舍,匆匆赶去上课。夜幕降临,姐妹们为她准备了惊喜的生日派对。谁知在赶赴派对的途中,泰 莉遭到蒙面男的杀害。吊诡的是,当她再度醒来时,发现自己又回到了9月18日的早上,十数个小时前经历的一切又不得不重新经历一遍,其中包括被杀的遭遇。就这样,抓狂的泰莉不断尝试改变命运,又一次次被神秘男人所杀害。                                    
                                她仿佛落入了永世轮回的诅咒之中,无法超生……

◎获奖情况 (共1项)
  第4届豆瓣电影年度榜单 (2017)
  评分最高的恐怖片(提名)

  1. ##### MediaInfo ######
  2. General
  3. Unique ID                                : 178030691598449453523468926865495114335 (0x85EF76C880EC939F2414254DE6E5425F)
  4. Complete name                            : Happy.Death.Day.2017.BluRay.2160p.DTS-HDMA5.1.HDR.x265.10bit-CTRLHD.mkv
  5. Format                                   : Matroska
  6. Format version                           : Version 4
  7. File size                                : 20.0 GiB
  8. Duration                                 : 1 h 36 min
  9. Overall bit rate mode                    : Variable
  10. Overall bit rate                         : 29.8 Mb/s
  11. Encoded date                             : UTC 2022-05-27 06:09:04
  12. Writing application                      : mkvmerge v62.0.0 ('Apollo') 64-bit
  13. Writing library                          : libebml v1.4.2 + libmatroska v1.6.4
  14. Video
  15. ID                                       : 1
  16. Format                                   : HEVC
  17. Format/Info                              : High Efficiency Video Coding
  18. Format profile                           : Main 10@L5@Main
  19. HDR format                               : SMPTE ST 2086, HDR10 compatible
  20. Codec ID                                 : V_MPEGH/ISO/HEVC
  21. Duration                                 : 1 h 36 min
  22. Bit rate                                 : 23.5 Mb/s
  23. Width                                    : 3 840 pixels
  24. Height                                   : 1 604 pixels
  25. Display aspect ratio                     : 2.40:1
  26. Frame rate mode                          : Constant
  27. Frame rate                               : 23.976 (23976/1000/53354) FPS
  28. Color space                              : YUV
  29. Chroma subsampling                       : 4:2:0 (Type 2)
  30. Bit depth                                : 10 bits
  31. Bits/(Pixel*Frame)                       : 0.159
  32. Stream size                              : 15.8 GiB (79%)
  33. Writing library                          : x265 3.5+10-82786fccc:[Windows][MSVC 1929][64 bit] 10bit
  34. Encoding settings                        : cpuid=533541111039 / frame-threads=5 / numa-pools=36,36 / wpp / no-pmode / no-pme / no-psnr / no-ssim / log-level=2 / input-csp=1 / input-res=3840x1604 / interlace=0 / total-frames=0 / level-idc=0 / high-tier=1 / uhd-bd=0 / ref=6 / no-allow-non-conformance / repeat-headers / annexb / no-aud / no-eob / no-eos / no-hrd / info / hash=0 / no-temporal-layers / no-open-gop / min-keyint=23 / keyint=250 / gop-lookahead=0 / bframes=14 / b-adapt=2 / b-pyramid / bframe-bias=0 / rc-lookahead=75 / lookahead-slices=8 / NTMzNTQ=uuDQuD2mJt9fsCf / scenecut=40 / hist-scenecut=0 / radl=0 / no-splice / no-intra-refresh / ctu=32 / min-cu-size=8 / no-rect / no-amp / max-tu-size=32 / tu-inter-depth=1 / tu-intra-depth=1 / limit-tu=0 / rdoq-level=2 / dynamic-rd=0.00 / no-ssim-rd / signhide / no-tskip / nr-intra=0 / nr-inter=0 / no-constrained-intra / no-strong-intra-smoothing / max-merge=3 / limit-refs=1 / no-limit-modes / me=3 / subme=7 / merange=64 / temporal-mvp / no-frame-dup / no-hme / weightp / weightb / no-analyze-src-pics / deblock=0:0 / no-sao / no-sao-non-deblock / rd=4 / selective-sao=0 / no-early-skip / rskip / no-fast-intra / no-tskip-fast / no-cu-lossless / b-intra / no-splitrd-skip / rdpenalty=2 / psy-rd=3.00 / psy-rdoq=4.80 / no-rd-refine / no-lossless / cbqpoffs=0 / crqpoffs=0 / rc=crf / crf=16.0 / qcomp=0.60 / qpstep=4 / stats-write=0 / stats-read=0 / ipratio=1.40 / pbratio=1.30 / aq-mode=1 / aq-strength=1.00 / cutree / zone-count=0 / no-strict-cbr / qg-size=32 / no-rc-grain / qpmax=69 / qpmin=0 / no-const-vbv / sar=0 / overscan=0 / videoformat=5 / range=0 / colorprim=9 / transfer=16 / colormatrix=9 / chromaloc=1 / chromaloc-top=2 / chromaloc-bottom=2 / display-window=0 / master-display=G(13250,34500)B(7500,3000)R(34000,16000)WP(15635,16450)L(10000000,50) / cll=993,357 / min-luma=0 / max-luma=1023 / log2-max-poc-lsb=8 / vui-timing-info / vui-hrd-info / slices=1 / no-opt-qp-pps / no-opt-ref-list-length-pps / no-multi-pass-opt-rps / scenecut-bias=0.05 / hist-threshold=0.03 / no-opt-cu-delta-qp / aq-motion / hdr10 / hdr10-opt / no-dhdr10-opt / no-idr-recovery-sei / analysis-reuse-level=0 / analysis-save-reuse-level=0 / analysis-load-reuse-level=0 / scale-factor=0 / refine-intra=0 / refine-inter=0 / refine-mv=1 / refine-ctu-distortion=0 / no-limit-sao / ctu-info=0 / no-lowpass-dct / refine-analysis-type=0 / copy-pic=1 / max-ausize-factor=1.0 / no-dynamic-refine / no-single-sei / no-hevc-aq / no-svt / no-field / qp-adaptation-range=1.00 / scenecut-aware-qp=0conformance-window-offsets / right=0 / bottom=0 / NTMzNTQ= / decoder-max-rate=0 / no-vbv-live-multi-pass
  35. Default                                  : Yes
  36. Forced                                   : No
  37. Color range                              : Limited
  38. Color primaries                          : BT.2020
  39. Transfer characteristics                 : PQ
  40. Matrix coefficients                      : BT.2020 non-constant
  41. Mastering display color primaries        : Display P3
  42. Mastering display luminance              : min: 0.0050 cd/m2, max: 1000 cd/m2
  43. Maximum Content Light Level              : 993 cd/m2
  44. Maximum Frame-Average Light Level        : 357 cd/m2
  45. Audio #1
  46. ID                                       : 2
  47. ID in the original source medium         : 4352 (0x1100)
  48. Format                                   : DTS XLL
  49. Format/Info                              : Digital Theater Systems
  50. Commercial name                          : DTS-HD Master Audio
  51. Codec ID                                 : A_DTS
  52. Duration                                 : 1 h 36 min
  53. Bit rate mode                            : Variable
  54. Bit rate                                 : 3 857 kb/s
  55. Channel(s)                               : 6 channels
  56. Channel layout                           : C L R Ls Rs LFE
  57. Sampling rate                            : 48.0 kHz
  58. Frame rate                               : 93.750 FPS (512 SPF)
  59. Bit depth                                : 24 bits
  60. Compression mode                         : Lossless
  61. Stream size                              : 2.59 GiB (13%)
  62. Language                                 : English
  63. Default                                  : Yes
  64. Forced                                   : No
  65. Original source medium                   : Blu-ray
  66. Audio #2
  67. ID                                       : 3
  68. Format                                   : DTS XLL
  69. Format/Info                              : Digital Theater Systems
  70. Commercial name                          : DTS-HD Master Audio
  71. Codec ID                                 : A_DTS
  72. Duration                                 : 1 h 36 min
  73. Bit rate mode                            : Variable
  74. Bit rate                                 : 2 350 kb/s
  75. Channel(s)                               : 6 channels
  76. Channel layout                           : C L R Ls Rs LFE
  77. Sampling rate                            : 48.0 kHz
  78. Frame rate                               : 93.750 FPS (512 SPF)
  79. Bit depth                                : 16 bits
  80. Compression mode                         : Lossless
  81. Delay relative to video                  : 1 s 0 ms
  82. Stream size                              : 1.58 GiB (8%)
  83. Language                                 : Chinese
  84. Default                                  : No
  85. Forced                                   : No
  86. Text #1
  87. ID                                       : 4
  88. Format                                   : PGS
  89. Muxing mode                              : zlib
  90. Codec ID                                 : S_HDMV/PGS
  91. Codec ID/Info                            : Picture based subtitle format used on BDs/HD-DVDs
  92. Duration                                 : 1 h 29 min
  93. Bit rate                                 : 20.1 kb/s
  94. Count of elements                        : 1982
  95. Stream size                              : 12.8 MiB (0%)
  96. Language                                 : Chinese
  97. Default                                  : Yes
  98. Forced                                   : No
  99. Text #2
  100. ID                                       : 5
  101. Format                                   : PGS
  102. Muxing mode                              : zlib
  103. Codec ID                                 : S_HDMV/PGS
  104. Codec ID/Info                            : Picture based subtitle format used on BDs/HD-DVDs
  105. Duration                                 : 1 h 29 min
  106. Bit rate                                 : 20.3 kb/s
  107. Count of elements                        : 1982
  108. Stream size                              : 13.0 MiB (0%)
  109. Language                                 : Chinese
  110. Default                                  : No
  111. Forced                                   : No
  112. Text #3
  113. ID                                       : 6
  114. Format                                   : PGS
  115. Muxing mode                              : zlib
  116. Codec ID                                 : S_HDMV/PGS
  117. Codec ID/Info                            : Picture based subtitle format used on BDs/HD-DVDs
  118. Duration                                 : 1 h 29 min
  119. Bit rate                                 : 39.1 kb/s
  120. Count of elements                        : 1983
  121. Stream size                              : 25.0 MiB (0%)
  122. Language                                 : Chinese
  123. Default                                  : No
  124. Forced                                   : No
  125. Text #4
  126. ID                                       : 7
  127. Format                                   : PGS
  128. Muxing mode                              : zlib
  129. Codec ID                                 : S_HDMV/PGS
  130. Codec ID/Info                            : Picture based subtitle format used on BDs/HD-DVDs
  131. Duration                                 : 1 h 29 min
  132. Bit rate                                 : 39.3 kb/s
  133. Count of elements                        : 1983
  134. Stream size                              : 25.1 MiB (0%)
  135. Language                                 : Chinese
  136. Default                                  : No
  137. Forced                                   : No
  138. Text #5
  139. ID                                       : 8
  140. ID in the original source medium         : 4768 (0x12A0)
  141. Format                                   : PGS
  142. Muxing mode                              : zlib
  143. Codec ID                                 : S_HDMV/PGS
  144. Codec ID/Info                            : Picture based subtitle format used on BDs/HD-DVDs
  145. Duration                                 : 1 h 36 min
  146. Bit rate                                 : 37.6 kb/s
  147. Count of elements                        : 3022
  148. Stream size                              : 25.8 MiB (0%)
  149. Language                                 : English
  150. Default                                  : No
  151. Forced                                   : No
  152. Original source medium                   : Blu-ray
  153. Menu
  154. 00:00:00.000                             : en:第 01 章
  155. 00:07:10.680                             : en:第 02 章
  156. 00:14:12.101                             : en:第 03 章
  157. 00:22:13.165                             : en:第 04 章
  158. 00:29:38.860                             : en:第 05 章
  159. 00:37:51.143                             : en:第 06 章
  160. 00:45:56.170                             : en:第 07 章
  161. 00:53:09.477                             : en:第 08 章
  162. 01:00:21.451                             : en:第 09 章
  163. 01:07:43.017                             : en:第 10 章
  164. 01:16:49.062                             : en:第 11 章
  165. 01:27:15.146                             : en:第 12 章
复制代码




TAGS 惊悚 恐怖 悬疑 /

磁力链:
  • magnet:?xt=urn:btih:F1570E6F5D15DBC735F959F953200451346DFA81
上传的附件:
BT9527电影天堂 1、BT9527电影天堂提供的BT文件均来源于互联网抓取,只供网友学习交流、技术提升使用。
2、我们遵守BitTorrent点对点协议原则,任何版权问题请联系原资源发布商,我们不处理任何版权纠纷,谢谢!如有争议请联系邮箱:BT9527#hotmail.com(#换成@)
3、如果您发现某页面或地址有错误,请联系站长邮箱BT9527#hotmail.com(#换成@),我们会尽快处理。您的热心是对BT9527电影天堂最大的支持。
4、本站建议去正规影院观看电影以支持电影行业发展。
最新回复 (0)

你可以在 登录 or 注册 后,对此帖发表评论!

返回
发新帖