忌日快乐2[国英多音轨/中英字幕].Happy.Death.Day.2U.2019.BluRay.2160p.DTS-HDMA5.1.HDR.x265.10bit-CTRLHD 21.04GB

版主小s 1月前 125



◎译  名 忌日快乐2 / 死亡无限2次LOOP(港) / 祝你忌日快乐(台) / Happy Death Day 2 / Happy Death Day to You / 生日惊魂2
◎片  名 Happy Death Day 2U
◎年  代 2019
◎产  地 美国
◎类  别 悬疑 / 惊悚 / 恐怖
◎语  言 英语
◎上映日期 2019-02-13(美国)
◎IMDb链接 https://www.imdb.com/title/tt8155288/
◎豆瓣评分 6.6/10 (88375人评价)
◎豆瓣链接 https://movie.douban.com/subject/30209818/
◎片  长 100分钟
◎导  演 克里斯托弗·兰登 Christopher Landon (id:1032310)
◎编  剧 克里斯托弗·兰登 Christopher Landon (id:1032310)
       斯科特·洛布德尔 Scott Lobdell (id:1382495)
◎演  员 杰西卡·罗德 Jessica Rothe (id:1325899)
       伊瑟尔·布罗萨德 Israel Broussard (id:1023036)
       露比·莫迪恩 Ruby Modine (id:1365373)
       苏拉·沙玛 Suraj Sharma (id:1322230)
       史蒂夫·齐西斯 Steve Zissis (id:1171259)
       瑞秋·马休斯 Rachel Matthews (id:1382498)
       查尔斯·艾特肯 Charles Aitken (id:1254553)
       莎拉·亚金 Sarah Yarkin (id:1392141)
       凯莱布·斯比尔亚兹 Caleb Spillyards (id:1382507)
       吉吉·埃内塔 GiGi Erneta (id:1377681)
       劳拉·克利夫顿 Laura Clifton (id:1382496)
       温迪·米克洛维奇 Wendy Miklovic (id:1405783)
       凯勒布·拿奎恩 Kaleb Naquin (id:1405784)
       肯尼斯·以色列 Kenneth Israel (id:1405785)
       泰内娅·因崔亚戈 Tenea Intriago (id:1382502)
       布莱恩·克恩 Blaine Kern III (id:1382503)
       川川 Tran Tran (id:1405786)
       卡瑞尔拉·史密斯 Cariella Smith (id:1382504)
       罗布·梅洛 Rob Mello (id:1344027)
       林赛·G·史密斯 Lindsey G. Smith (id:1382506)
       飞·武 Phi Vu (id:1382501)
       莎拉·贝纳尼 Sarah Bennani (id:1405787)
       杰奎琳·哈里斯·马瑟恩 Jacqueline Harris Matherne (id:1405788)
       西尔维娅·格雷丝·克里姆 Sylvia Grace Crim (id:1400840)
       拉姆齐·安德森 Ramsey Anderson (id:1382499)
       吉奈尔·伊森 Jenelle Eason (id:1414783)
       朱莉娅·霍特 Julia Holt (id:1414787)
       杰弗里·帕特里克 Jeffrey Patrick (id:1414791)
       詹姆斯·W·埃弗莫尔 James W. Evermore (id:1432642)
       伍德罗·爱德华德·麦卡锡 Woodrow Eduard McCarthy (id:1432817)
       伊桑·艾哈特 Ethan Airhart (id:1432824)
       托尼·查普曼·斯蒂尔 Toney Chapman Steele (id:1432828)
       布伦特·菲利普·亨利 Brent Phillip Henry (id:1432829)
       蒂莫西·辛里奇斯 Timothy Hinrichs (id:1432831)
       布伦达·柯林 Brenda Currin (id:1432969)

◎简  介
  停靠在路边的汽车内,黄毛小子瑞恩(飞·武 Phi Vu 饰)被其他汽车的喇叭惊醒,他昏头昏脑走下来,一路晃进校园,进了实验室。由于正在研究的装置耗能巨大,学院院长气急败坏责令瑞恩停掉在研项目。糟糕的事不止于此,事后不久他就被一个带着面具的家伙给杀掉了。然而,他再度醒来, 发现自己还躺在车里,而接下来发生的一切都和“梦境”中的一样。瑞恩惶恐不安,找到了好基友卡特·戴维斯(伊瑟尔·布罗萨德 Israel Broussard 饰)及其女友泰莉·格尔布曼(杰西卡·罗德 Jessica Rothe 饰)。                                    
                                这种生死轮回对于泰莉再熟悉不过了,她首先跟瑞恩讲述自己的经历,随后告诉他想终止轮回的方法只有找到凶手。而接下来,他们不仅发现瑞恩那台装置似乎是造成轮回的一个成因,而且泰莉再次回到了那个可怕的早晨……

  1. ##### MediaInfo ######
  2. General
  3. Unique ID                                : 56738067954165248967251725029675447808 (0x2AAF5ABA5959B86B4C8641A5B99D3600)
  4. Complete name                            : Happy.Death.Day.2U.2019.BluRay.2160p.DTS-HDMA5.1.HDR.x265.10bit-CTRLHD.mkv
  5. Format                                   : Matroska
  6. Format version                           : Version 4
  7. File size                                : 21.0 GiB
  8. Duration                                 : 1 h 39 min
  9. Overall bit rate mode                    : Variable
  10. Overall bit rate                         : 30.1 Mb/s
  11. Encoded date                             : UTC 2022-05-27 06:29:10
  12. Writing application                      : mkvmerge v62.0.0 ('Apollo') 64-bit
  13. Writing library                          : libebml v1.4.2 + libmatroska v1.6.4
  14. Video
  15. ID                                       : 1
  16. Format                                   : HEVC
  17. Format/Info                              : High Efficiency Video Coding
  18. Format profile                           : Main 10@L5@Main
  19. HDR format                               : SMPTE ST 2086, HDR10 compatible
  20. Codec ID                                 : V_MPEGH/ISO/HEVC
  21. Duration                                 : 1 h 39 min
  22. Bit rate                                 : 22.4 Mb/s
  23. Width                                    : 3 840 pixels
  24. Height                                   : 1 604 pixels
  25. Display aspect ratio                     : 2.40:1
  26. Frame rate mode                          : Constant
  27. Frame rate                               : 23.976 (23976/1000/53354) FPS
  28. Color space                              : YUV
  29. Chroma subsampling                       : 4:2:0 (Type 2)
  30. Bit depth                                : 10 bits
  31. Bits/(Pixel*Frame)                       : 0.152
  32. Stream size                              : 15.7 GiB (74%)
  33. Writing library                          : x265 3.5+10-82786fccc:[Windows][MSVC 1929][64 bit] 10bit
  34. Encoding settings                        : cpuid=533541111039 / frame-threads=5 / numa-pools=36,36 / wpp / no-pmode / no-pme / no-psnr / no-ssim / log-level=2 / input-csp=1 / input-res=3840x1604 / interlace=0 / total-frames=0 / level-idc=0 / high-tier=1 / uhd-bd=0 / ref=6 / no-allow-non-conformance / repeat-headers / annexb / no-aud / no-eob / no-eos / no-hrd / info / hash=0 / no-temporal-layers / no-open-gop / min-keyint=23 / keyint=250 / gop-lookahead=0 / bframes=14 / b-adapt=2 / b-pyramid / bframe-bias=0 / rc-lookahead=75 / lookahead-slices=8 / NTMzNTQ=uuDQuD2mJt9fsCf / scenecut=40 / hist-scenecut=0 / radl=0 / no-splice / no-intra-refresh / ctu=32 / min-cu-size=8 / no-rect / no-amp / max-tu-size=32 / tu-inter-depth=1 / tu-intra-depth=1 / limit-tu=0 / rdoq-level=2 / dynamic-rd=0.00 / no-ssim-rd / signhide / no-tskip / nr-intra=0 / nr-inter=0 / no-constrained-intra / no-strong-intra-smoothing / max-merge=3 / limit-refs=1 / no-limit-modes / me=3 / subme=7 / merange=64 / temporal-mvp / no-frame-dup / no-hme / weightp / weightb / no-analyze-src-pics / deblock=0:0 / no-sao / no-sao-non-deblock / rd=4 / selective-sao=0 / no-early-skip / rskip / no-fast-intra / no-tskip-fast / no-cu-lossless / b-intra / no-splitrd-skip / rdpenalty=2 / psy-rd=3.00 / psy-rdoq=4.80 / no-rd-refine / no-lossless / cbqpoffs=0 / crqpoffs=0 / rc=crf / crf=16.0 / qcomp=0.60 / qpstep=4 / stats-write=0 / stats-read=0 / ipratio=1.40 / pbratio=1.30 / aq-mode=1 / aq-strength=1.00 / cutree / zone-count=0 / no-strict-cbr / qg-size=32 / no-rc-grain / qpmax=69 / qpmin=0 / no-const-vbv / sar=0 / overscan=0 / videoformat=5 / range=0 / colorprim=9 / transfer=16 / colormatrix=9 / chromaloc=1 / chromaloc-top=2 / chromaloc-bottom=2 / display-window=0 / master-display=G(13250,34500)B(7500,3000)R(34000,16000)WP(15635,16450)L(10000000,50) / cll=962,491 / min-luma=0 / max-luma=1023 / log2-max-poc-lsb=8 / vui-timing-info / vui-hrd-info / slices=1 / no-opt-qp-pps / no-opt-ref-list-length-pps / no-multi-pass-opt-rps / scenecut-bias=0.05 / hist-threshold=0.03 / no-opt-cu-delta-qp / aq-motion / hdr10 / hdr10-opt / no-dhdr10-opt / no-idr-recovery-sei / analysis-reuse-level=0 / analysis-save-reuse-level=0 / analysis-load-reuse-level=0 / scale-factor=0 / refine-intra=0 / refine-inter=0 / refine-mv=1 / refine-ctu-distortion=0 / no-limit-sao / ctu-info=0 / no-lowpass-dct / refine-analysis-type=0 / copy-pic=1 / max-ausize-factor=1.0 / no-dynamic-refine / no-single-sei / no-hevc-aq / no-svt / no-field / qp-adaptation-range=1.00 / scenecut-aware-qp=0conformance-window-offsets / right=0 / bottom=0 / NTMzNTQ= / decoder-max-rate=0 / no-vbv-live-multi-pass
  35. Default                                  : Yes
  36. Forced                                   : No
  37. Color range                              : Limited
  38. Color primaries                          : BT.2020
  39. Transfer characteristics                 : PQ
  40. Matrix coefficients                      : BT.2020 non-constant
  41. Mastering display color primaries        : Display P3
  42. Mastering display luminance              : min: 0.0050 cd/m2, max: 1000 cd/m2
  43. Maximum Content Light Level              : 962 cd/m2
  44. Maximum Frame-Average Light Level        : 491 cd/m2
  45. Audio #1
  46. ID                                       : 2
  47. ID in the original source medium         : 4352 (0x1100)
  48. Format                                   : DTS XLL
  49. Format/Info                              : Digital Theater Systems
  50. Commercial name                          : DTS-HD Master Audio
  51. Codec ID                                 : A_DTS
  52. Duration                                 : 1 h 39 min
  53. Bit rate mode                            : Variable
  54. Bit rate                                 : 3 777 kb/s
  55. Channel(s)                               : 6 channels
  56. Channel layout                           : C L R Ls Rs LFE
  57. Sampling rate                            : 48.0 kHz
  58. Frame rate                               : 93.750 FPS (512 SPF)
  59. Bit depth                                : 24 bits
  60. Compression mode                         : Lossless
  61. Stream size                              : 2.64 GiB (13%)
  62. Language                                 : English
  63. Default                                  : Yes
  64. Forced                                   : No
  65. Original source medium                   : Blu-ray
  66. Audio #2
  67. ID                                       : 3
  68. Format                                   : DTS XLL
  69. Format/Info                              : Digital Theater Systems
  70. Commercial name                          : DTS-HD Master Audio
  71. Codec ID                                 : A_DTS
  72. Duration                                 : 1 h 39 min
  73. Bit rate mode                            : Variable
  74. Bit rate                                 : 3 837 kb/s
  75. Channel(s)                               : 6 channels
  76. Channel layout                           : C L R Ls Rs LFE
  77. Sampling rate                            : 48.0 kHz
  78. Frame rate                               : 93.750 FPS (512 SPF)
  79. Bit depth                                : 24 bits
  80. Compression mode                         : Lossless
  81. Stream size                              : 2.68 GiB (13%)
  82. Language                                 : Chinese
  83. Default                                  : No
  84. Forced                                   : No
  85. Text #1
  86. ID                                       : 4
  87. Format                                   : PGS
  88. Muxing mode                              : zlib
  89. Codec ID                                 : S_HDMV/PGS
  90. Codec ID/Info                            : Picture based subtitle format used on BDs/HD-DVDs
  91. Duration                                 : 1 h 34 min
  92. Bit rate                                 : 22.2 kb/s
  93. Count of elements                        : 2578
  94. Stream size                              : 15.0 MiB (0%)
  95. Language                                 : Chinese
  96. Default                                  : Yes
  97. Forced                                   : No
  98. Text #2
  99. ID                                       : 5
  100. Format                                   : PGS
  101. Muxing mode                              : zlib
  102. Codec ID                                 : S_HDMV/PGS
  103. Codec ID/Info                            : Picture based subtitle format used on BDs/HD-DVDs
  104. Duration                                 : 1 h 34 min
  105. Bit rate                                 : 22.5 kb/s
  106. Count of elements                        : 2578
  107. Stream size                              : 15.2 MiB (0%)
  108. Language                                 : Chinese
  109. Default                                  : No
  110. Forced                                   : No
  111. Text #3
  112. ID                                       : 6
  113. Format                                   : PGS
  114. Muxing mode                              : zlib
  115. Codec ID                                 : S_HDMV/PGS
  116. Codec ID/Info                            : Picture based subtitle format used on BDs/HD-DVDs
  117. Duration                                 : 1 h 34 min
  118. Bit rate                                 : 44.5 kb/s
  119. Count of elements                        : 2578
  120. Stream size                              : 30.0 MiB (0%)
  121. Language                                 : Chinese
  122. Default                                  : No
  123. Forced                                   : No
  124. Text #4
  125. ID                                       : 7
  126. Format                                   : PGS
  127. Muxing mode                              : zlib
  128. Codec ID                                 : S_HDMV/PGS
  129. Codec ID/Info                            : Picture based subtitle format used on BDs/HD-DVDs
  130. Duration                                 : 1 h 34 min
  131. Bit rate                                 : 44.8 kb/s
  132. Count of elements                        : 2578
  133. Stream size                              : 30.2 MiB (0%)
  134. Language                                 : Chinese
  135. Default                                  : No
  136. Forced                                   : No
  137. Text #5
  138. ID                                       : 8
  139. ID in the original source medium         : 4768 (0x12A0)
  140. Format                                   : PGS
  141. Muxing mode                              : zlib
  142. Codec ID                                 : S_HDMV/PGS
  143. Codec ID/Info                            : Picture based subtitle format used on BDs/HD-DVDs
  144. Duration                                 : 1 h 37 min
  145. Bit rate                                 : 40.1 kb/s
  146. Count of elements                        : 3326
  147. Stream size                              : 28.0 MiB (0%)
  148. Language                                 : English
  149. Default                                  : No
  150. Forced                                   : No
  151. Original source medium                   : Blu-ray
  152. Menu
  153. 00:00:00.000                             : en:第 01 章
  154. 00:07:57.268                             : en:第 02 章
  155. 00:16:01.418                             : en:第 03 章
  156. 00:24:21.668                             : en:第 04 章
  157. 00:34:01.581                             : en:第 05 章
  158. 00:42:05.773                             : en:第 06 章
  159. 00:49:50.237                             : en:第 07 章
  160. 00:57:19.060                             : en:第 08 章
  161. 01:06:25.523                             : en:第 09 章
  162. 01:13:20.479                             : en:第 10 章
  163. 01:20:57.727                             : en:第 11 章
  164. 01:27:36.501                             : en:第 12 章
复制代码




TAGS 惊悚 恐怖 悬疑 /

磁力链:
  • magnet:?xt=urn:btih:1BD85BA3CC8E5768A797BC9E2D209F89F7D1A325
上传的附件:
BT9527电影天堂 1、BT9527电影天堂提供的BT文件均来源于互联网抓取,只供网友学习交流、技术提升使用。
2、我们遵守BitTorrent点对点协议原则,任何版权问题请联系原资源发布商,我们不处理任何版权纠纷,谢谢!如有争议请联系邮箱:BT9527#hotmail.com(#换成@)
3、如果您发现某页面或地址有错误,请联系站长邮箱BT9527#hotmail.com(#换成@),我们会尽快处理。您的热心是对BT9527电影天堂最大的支持。
4、本站建议去正规影院观看电影以支持电影行业发展。
最新回复 (0)

你可以在 登录 or 注册 后,对此帖发表评论!

返回
发新帖