黑魔法降头[中文字幕].P.The.Possessed.2005.THAI.1080p.NF.WEBRip.DDP5.1.x264-NOGRP 3.26GB

版主小s 1月前 371

◎译 名 黑魔法降头 / The Possessed / P a.k.a. Ghost / P aka Ghost

◎片 名 P

◎年 代 2005

◎产 地 英国 / 泰国

◎类 别 恐怖

◎语 言 泰语

◎上映日期 2005-02-28

◎IMDb链接 https://www.imdb.com/title/tt0449629/

◎豆瓣链接 https://movie.douban.com/subject/2301376/

◎片 长 110 分钟

◎导 演 保罗·斯珀里尔 Paul Spurrier (id:1019566)

◎编 剧 保罗·斯珀里尔 Paul Spurrier (id:1019566)

◎演 员 保罗·斯珀里尔 Paul Spurrier (id:1019566)

皮萨迈·帕克迪维吉特 Pisamai Pakdeevijit (id:1470671)

保罗·斯珀里尔 Paul Spurrier (id:1019566)

保罗·斯珀里尔 Paul Spurrier (id:1019566)

保罗·斯珀里尔 Paul Spurrier (id:1019566)

◎简 介

Whilst growing up in rural Thailand, a young orphan girl is taught the ways of magic by her grandmother. But when grandmother falls sick, Dau is lured to Bangkok to find work so that she can buy medicine. She finds herself working in a go-go bar, and her journey from naiveté to maturity is swift. She uses the magical skills her grandmother taught her to her advantage, but in do...

  1. Video

  2. ID : 1

  3. Format : AVC

  4. Format/Info : Advanced Video Codec

  5. Format profile : Main@L4

  6. Format settings : CABAC / 3 Ref Frames

  7. Format settings, CABAC : Yes

  8. Format settings, Reference frames : 3 frames

  9. Codec ID : V_MPEG4/ISO/AVC

  10. Duration : 1 h 44 min

  11. Bit rate mode : Variable

  12. Bit rate : 3 830 kb/s

  13. Maximum bit rate : 5 745 kb/s

  14. Width : 1 920 pixels

  15. Height : 1 080 pixels

  16. Display aspect ratio : 16:9

  17. Frame rate mode : Constant

  18. Frame rate : 25.000 FPS

  19. Color space : YUV

  20. Chroma subsampling : 4:2:0

  21. Bit depth : 8 bits

  22. Scan type : Progressive

  23. Bits/(Pixel*Frame) : 0.074

  24. Stream size : 2.79 GiB (86%)

  25. Writing library : x264 core 118

  26. Encoding settings : cabac=1 / ref=3 / deblock=1:0:0 / analyse=0x1:0x111 / me=umh / subme=10 / psy=1 / psy_rd=1.00:0.00 / mixed_ref=1 / me_range=24 / chroma_me=1 / trellis=2 / 8x8dct=0 / cqm=0 / deadzone=21,11 / fast_pskip=1 / chroma_qp_offset=-2 / threads=8 / sliced_threads=0 / nr=0 / decimate=1 / interlaced=0 / NTMzNTQ= / bluray_compat=0 / constrained_intra=0 / bframes=2 / b_pyramid=0 / b_adapt=2 / b_bias=0 / direct=3 / weightb=1 / open_gop=0 / weightp=2 / keyint=50 / keyint_min=26 / scenecut=0 / intra_refresh=0 / rc_lookahead=0 / rc=2pass / mbtree=1 / bitrate=3830 / ratetol=1.0 / qcomp=0.50 / qpmin=6 / qpmax=51 / qpstep=4 / cplxblur=20.0 / qblur=0.5 / vbv_maxrate=5745 / vbv_bufsize=7660 / nal_hrd=vbr / NTMzNTQ=LmsMAP37EqsCpk / ip_ratio=1.40 / aq=1:1.00

  27. Default : Yes

  28. Forced : No


  29. Audio

  30. ID : 2

  31. Format : E-AC-3

  32. Format/Info : Enhanced AC-3

  33. Commercial name : Dolby Digital Plus

  34. Codec ID : A_EAC3

  35. Duration : 1 h 44 min

  36. Bit rate mode : Constant

  37. Bit rate : 640 kb/s

  38. Channel(s) : 6 channels

  39. Channel layout : L R C LFE Ls Rs

  40. Sampling rate : 48.0 kHz

  41. Frame rate : 31.250 FPS (1536 SPF)

  42. Compression mode : Lossy

  43. Stream size : 479 MiB (14%)

  44. Language : Thai

  45. Service kind : Complete Main

  46. Default : Yes

  47. Forced : No


  48. Text #1

  49. ID : 3

  50. Format : UTF-8

  51. Codec ID : S_TEXT/UTF8

  52. Codec ID/Info : UTF-8 Plain Text

  53. Duration : 1 h 44 min

  54. Bit rate : 57 b/s

  55. Count of elements : 928

  56. Stream size : 44.1 KiB (0%)

  57. Language : Arabic

  58. Default : No

  59. Forced : No


  60. Text #2

  61. ID : 4

  62. Format : UTF-8

  63. Codec ID : S_TEXT/UTF8

  64. Codec ID/Info : UTF-8 Plain Text

  65. Duration : 1 h 44 min

  66. Bit rate : 33 b/s

  67. Count of elements : 936

  68. Stream size : 25.8 KiB (0%)

  69. Title : Traditional

  70. Language : Chinese

  71. Default : No

  72. Forced : No


  73. Text #3

  74. ID : 5

  75. Format : UTF-8

  76. Codec ID : S_TEXT/UTF8

  77. Codec ID/Info : UTF-8 Plain Text

  78. Duration : 1 h 44 min

  79. Bit rate : 36 b/s

  80. Count of elements : 924

  81. Stream size : 27.6 KiB (0%)

  82. Language : Danish

  83. Default : No

  84. Forced : No


  85. Text #4

  86. ID : 6

  87. Format : UTF-8

  88. Codec ID : S_TEXT/UTF8

  89. Codec ID/Info : UTF-8 Plain Text

  90. Duration : 1 h 44 min

  91. Bit rate : 31 b/s

  92. Count of elements : 920

  93. Stream size : 24.0 KiB (0%)

  94. Language : Dutch

  95. Default : No

  96. Forced : No


  97. Text #5

  98. ID : 7

  99. Format : UTF-8

  100. Codec ID : S_TEXT/UTF8

  101. Codec ID/Info : UTF-8 Plain Text

  102. Duration : 1 h 38 min

  103. Bit rate : 39 b/s

  104. Count of elements : 945

  105. Stream size : 28.2 KiB (0%)

  106. Language : English

  107. Default : Yes

  108. Forced : No


  109. Text #6

  110. ID : 8

  111. Format : UTF-8

  112. Codec ID : S_TEXT/UTF8

  113. Codec ID/Info : UTF-8 Plain Text

  114. Duration : 1 h 44 min

  115. Bit rate : 36 b/s

  116. Count of elements : 926

  117. Stream size : 27.6 KiB (0%)

  118. Language : Finnish

  119. Default : No

  120. Forced : No


  121. Text #7

  122. ID : 9

  123. Format : UTF-8

  124. Codec ID : S_TEXT/UTF8

  125. Codec ID/Info : UTF-8 Plain Text

  126. Duration : 1 h 44 min

  127. Bit rate : 35 b/s

  128. Count of elements : 921

  129. Stream size : 27.5 KiB (0%)

  130. Language : French

  131. Default : No

  132. Forced : No


  133. Text #8

  134. ID : 10

  135. Format : UTF-8

  136. Codec ID : S_TEXT/UTF8

  137. Codec ID/Info : UTF-8 Plain Text

  138. Duration : 1 h 44 min

  139. Bit rate : 36 b/s

  140. Count of elements : 919

  141. Stream size : 27.7 KiB (0%)

  142. Language : German

  143. Default : No

  144. Forced : No


  145. Text #9

  146. ID : 11

  147. Format : UTF-8

  148. Codec ID : S_TEXT/UTF8

  149. Codec ID/Info : UTF-8 Plain Text

  150. Duration : 1 h 44 min

  151. Bit rate : 52 b/s

  152. Count of elements : 922

  153. Stream size : 40.0 KiB (0%)

  154. Language : Hebrew

  155. Default : No

  156. Forced : No


  157. Text #10

  158. ID : 12

  159. Format : UTF-8

  160. Codec ID : S_TEXT/UTF8

  161. Codec ID/Info : UTF-8 Plain Text

  162. Duration : 1 h 44 min

  163. Bit rate : 31 b/s

  164. Count of elements : 921

  165. Stream size : 24.0 KiB (0%)

  166. Language : Norwegian Bokmal

  167. Default : No

  168. Forced : No


  169. Text #11

  170. ID : 13

  171. Format : UTF-8

  172. Codec ID : S_TEXT/UTF8

  173. Codec ID/Info : UTF-8 Plain Text

  174. Duration : 1 h 44 min

  175. Bit rate : 34 b/s

  176. Count of elements : 933

  177. Stream size : 26.5 KiB (0%)

  178. Title : Brazilian

  179. Language : Portuguese

  180. Default : No

  181. Forced : No


  182. Text #12

  183. ID : 14

  184. Format : UTF-8

  185. Codec ID : S_TEXT/UTF8

  186. Codec ID/Info : UTF-8 Plain Text

  187. Duration : 1 h 44 min

  188. Bit rate : 38 b/s

  189. Count of elements : 920

  190. Stream size : 29.7 KiB (0%)

  191. Title : European

  192. Language : Spanish

  193. Default : No

  194. Forced : No


  195. Text #13

  196. ID : 15

  197. Format : UTF-8

  198. Codec ID : S_TEXT/UTF8

  199. Codec ID/Info : UTF-8 Plain Text

  200. Duration : 1 h 44 min

  201. Bit rate : 35 b/s

  202. Count of elements : 927

  203. Stream size : 26.9 KiB (0%)

  204. Language : Spanish

  205. Default : No

  206. Forced : No


  207. Text #14

  208. ID : 16

  209. Format : UTF-8

  210. Codec ID : S_TEXT/UTF8

  211. Codec ID/Info : UTF-8 Plain Text

  212. Duration : 1 h 44 min

  213. Bit rate : 34 b/s

  214. Count of elements : 924

  215. Stream size : 26.0 KiB (0%)

  216. Language : Swedish

  217. Default : No

  218. Forced : No


  219. Text #15

  220. ID : 17

  221. Format : UTF-8

  222. Codec ID : S_TEXT/UTF8

  223. Codec ID/Info : UTF-8 Plain Text

  224. Duration : 1 h 38 min

  225. Bit rate : 92 b/s

  226. Count of elements : 940

  227. Stream size : 66.9 KiB (0%)

  228. Language : Thai

  229. Default : No

  230. Forced : No


  231. Text #16

  232. ID : 18

  233. Format : UTF-8

  234. Codec ID : S_TEXT/UTF8

  235. Codec ID/Info : UTF-8 Plain Text

  236. Duration : 1 h 44 min

  237. Bit rate : 33 b/s

  238. Count of elements : 926

  239. Stream size : 25.7 KiB (0%)

  240. Language : Turkish

  241. Default : No

  242. Forced : No

复制代码

  


TAGS 恐怖

磁力链:
  • magnet:?xt=urn:btih:CB5D5CCD23B73B32A2E7E801CCE0DCAB37C29DE3
上传的附件:
BT9527电影天堂 1、BT9527电影天堂提供的BT文件均来源于互联网抓取,只供网友学习交流、技术提升使用。
2、我们遵守BitTorrent点对点协议原则,任何版权问题请联系原资源发布商,我们不处理任何版权纠纷,谢谢!如有争议请联系邮箱:BT9527#hotmail.com(#换成@)
3、如果您发现某页面或地址有错误,请联系站长邮箱BT9527#hotmail.com(#换成@),我们会尽快处理。您的热心是对BT9527电影天堂最大的支持。
4、本站建议去正规影院观看电影以支持电影行业发展。
最新回复 (0)

你可以在 登录 or 注册 后,对此帖发表评论!

返回
发新帖