麦兜故事[共6部合集][国粤英多音轨/简繁英字幕].The.McDull.Collection.2001-2016.BluRay.1080p.2Audio.DTS-HD.MA.5.1.x265.10bit-ALT 44.23GB

版主小s 1月前 176

◎译 名 麦兜故事 / 麦兜的故事 / My Life as McDull

◎片 名 麥兜故事

◎年 代 2001

◎产 地 中国香港

◎类 别 剧情 / 喜剧 / 动画

◎语 言 粤语

◎上映日期 2001-12-15

◎IMDb链接 https://www.imdb.com/title/tt0312941/

◎豆瓣评分 8.6/10 (173429人评价)

◎豆瓣链接 https://movie.douban.com/subject/1302476/

◎片 长 Japan: 75 分钟

◎导 演 袁建滔 Toe Yuen (id:1304706)

◎编 剧 谢立文 Brian Tse (id:1304710)

麦家碧 Alice Mak (id:1316221)

◎演 员 林海峰 Jan Lamb (id:1006502)

吴君如 Sandra Ng (id:1127819)

黄秋生 Anthony Wong Chau-Sang (id:1050076)

Buxx Banner Buxx Banner (id:1006424)

蔡明丽 Dejay Choi Ming-Lai (id:1321715)

谢立文 Brian Tse (id:1304710)

蔡明丽 Dejay Choi Ming-Lai (id:1321715)

何崇志 Shung Chi Ho (id:1330708)

袁建滔 Toe Yuen (id:1304706)

麦家碧 Alice Mak (id:1316221)

◎简 介

麦兜,一个长得不帅,头脑平平的小朋友。和妈妈麦太太,在香港一个叫大角咀的地方过着并不富裕却很快乐的生活。从麦兜带着妈妈的期望来到世界那一刻开始,他的脑海中一直飘满七彩幻想的泡泡。那个蓝天白云,椰林树影,水清沙白的童年的马尔代夫,那充满诱惑的圣诞火鸡的浓香,还有那个关于“抢包山”的奥运金牌的梦想,让麦兜平凡着他的平凡,却幸福着他的幸福。麦兜,和春田花花幼儿园的小朋友们一起,陪着我们,简单的在爱的呵护下慢慢长大。

◎获奖情况 (共5项)

第39届台北金马影展 (2002)

金马奖 最佳动画长片

第21届香港电影金像奖 (2002)

最佳原创电影音乐

└──何崇志 (id:1330708)

杰出青年导演(提名)

└──袁建滔 (id:1304706)

第10届华语电影传媒大奖 (2010)

新世纪十年十佳电影

第2届华语电影传媒大奖 (2002)

最佳电影(提名)

  1. 合集文件列表:

  2. 1.McDull.Kung.Fu.Kindergarten.2009.BluRay.1080p.2Audio.DTS-HD.MA.5.1.x265.10bit-ALT.mkv 5.35GB

  3. 2.McDull.Me.and.My.Mum.2014.BluRay.1080p.2Audio.TrueHD.5.1.x265.10bit-ALT.mkv 5.85GB

  4. 3.McDull.Prince.de.la.Bun.2004.BluRay.1080p.2Audio.DTS-HD.MA.5.1.x265.10bit-ALT.mkv 11.24GB

  5. 4.McDull.Rise.of.the.Rice.Cooker.2016.BluRay.1080p.2Audio.TrueHD.5.1.x265.10bit-ALT.mkv 6.22GB

  6. 5.McDull.The.Pork.of.Music.2012.BluRay.1080p.2Audio.TrueHD.7.1.x265.10bit-ALT.mkv 6.32GB

  7. 6.My.Life.as.McDull.2001.BluRay.1080p.2Audio.DTS-HD.MA.5.1.x265.10bit-ALT.mkv 9.26GB


复制代码

  1. ##### MediaInfo ######

  2. General

  3. Unique ID : 277541599809208770491626139091542324042 (0xD0CC915A97789462DE4087031569B34A)

  4. Complete name : McDull.Kung.Fu.Kindergarten.2009.BluRay.1080p.2Audio.DTS-HD.MA.5.1.x265.10bit-ALT.mkv

  5. Format : Matroska

  6. Format version : Version 4

  7. File size : 5.35 GiB

  8. Duration : 1 h 19 min

  9. Overall bit rate mode : Variable

  10. Overall bit rate : 9 654 kb/s

  11. Encoded date : UTC 2020-02-22 09:24:21

  12. Writing application : mkvmerge v43.0.0 ('The Quartermaster') 64-bit

  13. Writing library : libebml v1.3.10 + libmatroska v1.5.2

  14. Video

  15. ID : 1

  16. Format : HEVC

  17. Format/Info : High Efficiency Video Coding

  18. Format profile : Main 10@L5.1@High

  19. Codec ID : V_MPEGH/ISO/HEVC

  20. Duration : 1 h 19 min

  21. Bit rate : 6 974 kb/s

  22. Width : 1 920 pixels

  23. Height : 1 080 pixels

  24. Display aspect ratio : 16:9

  25. Frame rate mode : Constant

  26. Frame rate : 24.000 FPS

  27. Color space : YUV

  28. Chroma subsampling : 4:2:0

  29. Bit depth : 10 bits

  30. Bits/(Pixel*Frame) : 0.140

  31. Stream size : 3.87 GiB (72%)

  32. Title : HEVC, x265Main10@L5.1@High, 24 fps @ 6973 kbps

  33. Writing library : x265 3.0_Au+4-dcbec33bfb0f:[Windows][GCC 8.2.1][64 bit] 10bit

  34. Encoding settings : cpuid=533541111039 / frame-threads=4 / numa-pools=16 / wpp / pmode / pme / no-psnr / no-ssim / log-level=2 / input-csp=1 / input-res=1920x1080 / interlace=0 / total-frames=114336 / level-idc=51 / high-tier=1 / uhd-bd=0 / ref=5 / no-allow-non-conformance / no-repeat-headers / annexb / no-aud / no-hrd / info / hash=0 / no-temporal-layers / open-gop / min-keyint=24 / keyint=240 / gop-lookahead=0 / bframes=6 / b-adapt=2 / b-pyramid / bframe-bias=0 / rc-lookahead=40 / lookahead-slices=0 / NTMzNTQ=uuDQuD2mJt9fsCf / scenecut=40 / radl=0 / no-splice / no-intra-refresh / ctu=32 / min-cu-size=8 / no-rect / no-amp / max-tu-size=32 / tu-inter-depth=3 / tu-intra-depth=3 / limit-tu=4 / rdoq-level=2 / dynamic-rd=0.00 / no-ssim-rd / signhide / no-tskip / nr-intra=0 / nr-inter=0 / no-constrained-intra / no-strong-intra-smoothing / max-merge=4 / limit-refs=1 / limit-modes / me=3 / subme=4 / merange=25 / temporal-mvp / weightp / weightb / no-analyze-src-pics / deblock=-3:-3 / no-sao / no-sao-non-deblock / rd=6 / no-early-skip / rskip / no-fast-intra / no-tskip-fast / no-cu-lossless / b-intra / no-splitrd-skip / rdpenalty=0 / psy-rd=2.00 / psy-rdoq=1.00 / no-rd-refine / no-lossless / cbqpoffs=0 / crqpoffs=0 / rc=crf / crf=17.0 / qcomp=0.65 / qpstep=4 / stats-write=0 / stats-read=0 / vbv-maxrate=80000 / vbv-bufsize=80000 / vbv-init=0.9 / crf-max=0.0 / crf-min=0.0 / ipratio=1.40 / pbratio=1.30 / aq-mode=2 / aq-strength=0.85 / cutree / zone-count=0 / no-strict-cbr / qg-size=32 / no-rc-grain / qpmax=69 / qpmin=0 / no-const-vbv / sar=1 / overscan=0 / videoformat=5 / range=0 / colorprim=1 / transfer=1 / colormatrix=1 / chromaloc=0 / display-window=0 / max-cll=0,0 / min-luma=0 / max-luma=1023 / log2-max-poc-lsb=8 / vui-timing-info / vui-hrd-info / slices=1 / no-opt-qp-pps / no-opt-ref-list-length-pps / no-multi-pass-opt-rps / scenecut-bias=0.05 / no-opt-cu-delta-qp / no-aq-motion / no-hdr / no-hdr-opt / no-dhdr10-opt / no-idr-recovery-sei / analysis-reuse-level=5 / scale-factor=0 / refine-intra=0 / refine-inter=0 / refine-mv=0 / refine-ctu-distortion=0 / no-limit-sao / ctu-info=0 / no-lowpass-dct / refine-analysis-type=0 / copy-pic=1 / max-ausize-factor=1.0 / no-dynamic-refine / no-single-sei / no-hevc-aq / qp-adaptation-range=1.00

  35. Language : English

  36. Default : Yes

  37. Forced : No

  38. Color range : Limited

  39. Color primaries : BT.709

  40. Transfer characteristics : BT.709

  41. Matrix coefficients : BT.709

  42. Audio #1

  43. ID : 2

  44. Format : DTS XLL

  45. Format/Info : Digital Theater Systems

  46. Commercial name : DTS-HD Master Audio

  47. Codec ID : A_DTS

  48. Duration : 1 h 19 min

  49. Bit rate mode : Variable

  50. Bit rate : 2 185 kb/s

  51. Channel(s) : 6 channels

  52. Channel layout : C L R Ls Rs LFE

  53. Sampling rate : 48.0 kHz

  54. Frame rate : 93.750 FPS (512 SPF)

  55. Bit depth : 16 bits

  56. Compression mode : Lossless

  57. Stream size : 1.21 GiB (23%)

  58. Title : Cantonese DTS-HD Master Audio 5.1 @ 2185 kbps

  59. Language : Chinese

  60. Default : Yes

  61. Forced : No

  62. Audio #2

  63. ID : 3

  64. Format : AC-3

  65. Format/Info : Audio Coding 3

  66. Commercial name : Dolby Digital

  67. Codec ID : A_AC3

  68. Duration : 1 h 19 min

  69. Bit rate mode : Constant

  70. Bit rate : 384 kb/s

  71. Channel(s) : 2 channels

  72. Channel layout : L R

  73. Sampling rate : 48.0 kHz

  74. Frame rate : 31.250 FPS (1536 SPF)

  75. Compression mode : Lossy

  76. Stream size : 218 MiB (4%)

  77. Title : Mandarin Dolby Digital Audio 2.0 @ 384 kbps

  78. Language : English

  79. Service kind : Complete Main

  80. Default : No

  81. Forced : No

  82. Text #1

  83. ID : 4

  84. Format : PGS

  85. Codec ID : S_HDMV/PGS

  86. Codec ID/Info : Picture based subtitle format used on BDs/HD-DVDs

  87. Duration : 1 h 16 min

  88. Bit rate : 38.4 kb/s

  89. Count of elements : 1832

  90. Stream size : 20.9 MiB (0%)

  91. Title : Cht/SUP 原盘繁体

  92. Language : Chinese

  93. Default : No

  94. Forced : No

  95. Text #2

  96. ID : 5

  97. Format : PGS

  98. Codec ID : S_HDMV/PGS

  99. Codec ID/Info : Picture based subtitle format used on BDs/HD-DVDs

  100. Duration : 1 h 16 min

  101. Bit rate : 37.0 kb/s

  102. Count of elements : 1832

  103. Stream size : 20.2 MiB (0%)

  104. Title : Chs/SUP 原盘简体

  105. Language : Chinese

  106. Default : Yes

  107. Forced : No

  108. Text #3

  109. ID : 6

  110. Format : PGS

  111. Codec ID : S_HDMV/PGS

  112. Codec ID/Info : Picture based subtitle format used on BDs/HD-DVDs

  113. Duration : 1 h 16 min

  114. Bit rate : 37.4 kb/s

  115. Count of elements : 1832

  116. Stream size : 20.4 MiB (0%)

  117. Title : Eng/SUP

  118. Language : English

  119. Default : No

  120. Forced : No

  121. Menu

  122. 00:00:00.000 : en:第 01 章

  123. 00:04:55.583 : en:第 02 章

  124. 00:11:57.625 : en:第 03 章

  125. 00:18:57.458 : en:第 04 章

  126. 00:27:37.708 : en:第 05 章

  127. 00:34:58.708 : en:第 06 章

  128. 00:40:20.750 : en:第 07 章

  129. 00:46:35.833 : en:第 08 章

  130. 00:50:40.792 : en:第 09 章

  131. 01:00:36.750 : en:第 10 章

  132. 01:05:06.958 : en:第 11 章

  133. 01:13:33.833 : en:第 12 章


复制代码


TAGS 剧情 动画 喜剧 /

磁力链:
  • magnet:?xt=urn:btih:47AD9A3892086D2B69373C23BE1D2E05678964B7
上传的附件:
BT9527电影天堂 1、BT9527电影天堂提供的BT文件均来源于互联网抓取,只供网友学习交流、技术提升使用。
2、我们遵守BitTorrent点对点协议原则,任何版权问题请联系原资源发布商,我们不处理任何版权纠纷,谢谢!如有争议请联系邮箱:BT9527#hotmail.com(#换成@)
3、如果您发现某页面或地址有错误,请联系站长邮箱BT9527#hotmail.com(#换成@),我们会尽快处理。您的热心是对BT9527电影天堂最大的支持。
4、本站建议去正规影院观看电影以支持电影行业发展。
最新回复 (0)

你可以在 登录 or 注册 后,对此帖发表评论!

返回
发新帖