超人总动员[共2部合集][国粤英多音轨/简繁英字幕].The.Incredibles.2004-2018.BluRay.1080p.MultiAudio.DTS-HD.MA.7.1.x265.10bit-ALT 19.02GB

版主小s 1月前 146

◎译 名 超人总动员 / 超人特工队(港) / 超人特攻队(台) / 超人家族

◎片 名 The Incredibles

◎年 代 2004

◎产 地 美国

◎类 别 喜剧 / 动作 / 动画 / 冒险

◎语 言 英语 / 西班牙语 / 法语

◎上映日期 2005-01-28(中国大陆) / 2004-11-05(美国)

◎IMDb链接 https://www.imdb.com/title/tt0317705/

◎豆瓣评分 8.2/10 (277668人评价)

◎豆瓣链接 https://movie.douban.com/subject/1291577/

◎片 长 115分钟

◎导 演 布拉德·伯德 Brad Bird (id:1027204)

◎编 剧 布拉德·伯德 Brad Bird (id:1027204)

◎演 员 格雷格·T·尼尔森 Craig T. Nelson (id:1002721)

霍利·亨特 Holly Hunter (id:1031838)

塞缪尔·杰克逊 Samuel L. Jackson (id:1054408)

杰森·李 Jason Lee (id:1044714)

泰迪·牛顿 Teddy Newton (id:1293142)

华莱士·肖恩 Wallace Shawn (id:1040504)

蔡康永 Kevin Tsai (id:1273400)

布拉德·伯德 Brad Bird (id:1027204)

徐熙娣 Dee Hsu (id:1265136)

陈佩斯 Peisi Chen (id:1280571)

莎拉·沃威尔 Sarah Vowell (id:1186797)

Spencer Fox Spencer Fox (id:1187854)

姜文 Wen Jiang (id:1021999)

宫迫博之 Hiroyuki Miyasako (id:1001269)

徐帆 Fan Xu (id:1017207)

斯蒂芬·沙弗 Stephen Schaffer (id:1296820)

Dmitry Pomirchy Dmitry Pomirchy (id:1173428)

Ricardo Gray (id:1249508)

马克?安德鲁斯 Mark Andrews (id:1277254)

巴德·乐凯 Bud Luckey (id:1290427)

鲍勃·彼德森 Bob Peterson (id:1294383)

彼得·孙 Peter Sohn (id:1298008)

泰德·马托特 Ted Mathot (id:1303097)

Katherine Sarafian Katherine Sarafian (id:1330392)

迈克·吉亚奇诺 Michael Giacchino (id:1027937)

安德鲁·吉梅内斯 Andrew Jimenez (id:1305449)

斯蒂芬·沙弗 Stephen Schaffer (id:1296820)

Kevin Reher Kevin Reher (id:1295391)

Jen Rudin Jen Rudin (id:1308448)

Matthew Jon Beck Matthew Jon Beck (id:1302105)

Aaron Sadovsky Aaron Sadovsky (id:1006620)

Nigel Hardwidge Nigel Hardwidge (id:1286029)

Gary Bruins Gary Bruins (id:1311053)

Martin Nguyen Martin Nguyen (id:1310200)

Erdem Taylan Erdem Taylan (id:1308119)

安德鲁·吉梅内斯 Andrew Jimenez (id:1305449)

基斯·丹尼尔·克隆 Keith Daniel Klohn (id:1303967)

William Austin Lee William Austin Lee (id:1308955)

里克·塞尔 Rick Sayre (id:1296803)

大卫·理查德·尼尔森 David Richard Nelson (id:1311235)

卡洛斯·巴埃纳 Carlos Baena (id:1304143)

史蒂文·克雷·亨特 Steven Clay Hunter (id:1438657)

◎简 介

鲍勃是一个超人特工,他惩恶扬善,深受街坊邻里的爱戴。“不可思议”先生就是他的光荣外号。他和另一个超人特工“弹力女超人”相爱,两人结婚后过上平静的生活。

15年过去了,鲍勃已经像普通人一样生活,当上了保险公司的理赔员。然而他心中还是有着技痒之时。当他知道有发明家要展开攻击超人特工队、毁灭人类的计划,鲍勃终于按捺不住了。他要重出江湖,挽救人类护卫地球。但中年的超人已经大腹便便,他和敌人的斗争充满了悬念。鲍勃的妻子也跟丈夫一起投入到这场艰巨的战争中。

◎获奖情况 (共23项)

第77届奥斯卡金像奖 (2005)

最佳原创剧本(提名)

└──布拉德·伯德 (id:1027204)

最佳动画长片

└──布拉德·伯德 (id:1027204)

最佳混音(提名)

最佳音效剪辑

第62届金球奖 (2005)

电影类 最佳音乐/喜剧片(提名)

第32届动画安妮奖 (2005)

最佳动画长片

最佳导演

└──布拉德·伯德 (id:1027204)

最佳编剧

└──布拉德·伯德 (id:1027204)

最佳配音

└──布拉德·伯德 (id:1027204)

最佳配音(提名)

└──塞缪尔·杰克逊 (id:1054408)

最佳配乐

└──迈克·吉亚奇诺 (id:1027937)

最佳配乐(提名)

└──迈克·吉亚奇诺 (id:1027937)

最佳分镜

└──凯文·奥布莱恩 (id:1293369)

最佳分镜(提名)

└──泰德·马托特 (id:1303097)

最佳艺术指导

└──卢·罗曼诺 (id:1000301)

最佳动画角色

└──安格斯·麦克莱恩 (id:1290663)

最佳动画角色(提名)

最佳角色设计

└──托尼·弗希勒 (id:1284287)

最佳角色设计(提名)

└──泰迪·牛顿 (id:1293142)

最佳动画效果

└──Martin Nguyen (id:1310200)

第14届MTV电影奖 (2005)

MTV电影奖 年度电影(提名)

MTV电影奖 最佳银幕组合(提名)

第5届美国电影学会奖 (2004)

年度佳片

  1. 合集文件列表:

  2. 1.Incredibles.2.2018.BluRay.1080p.MultiAudio.DTS-HD.MA.7.1.x265.10bit-ALT.mkv 10.47GB

  3. 2.The.Incredibles.2004.BluRay.1080p.MultiAudio.DTS-HD.MA.5.1.x265.10bit-ALT.mkv 8.55GB


复制代码

  1. ##### MediaInfo ######

  2. General

  3. Unique ID : 236819083783133628341331631075435067607 (0xB229B24CE88B41DA690A8FD7D57DB8D7)

  4. Complete name : Incredibles.2.2018.BluRay.1080p.MultiAudio.DTS-HD.MA.7.1.x265.10bit-ALT.mkv

  5. Format : Matroska

  6. Format version : Version 4

  7. File size : 10.5 GiB

  8. Duration : 1 h 57 min

  9. Overall bit rate mode : Variable

  10. Overall bit rate : 12.7 Mb/s

  11. Encoded date : UTC 2021-02-11 06:56:36

  12. Writing application : mkvmerge v49.0.0 ('Sick Of Losing Soulmates') 64-bit

  13. Writing library : libebml v1.4.0 + libmatroska v1.6.1

  14. Video

  15. ID : 1

  16. Format : HEVC

  17. Format/Info : High Efficiency Video Coding

  18. Format profile : Main 10@L5.1@High

  19. Codec ID : V_MPEGH/ISO/HEVC

  20. Duration : 1 h 57 min

  21. Bit rate : 5 720 kb/s

  22. Width : 1 920 pixels

  23. Height : 804 pixels

  24. Display aspect ratio : 2.40:1

  25. Frame rate mode : Constant

  26. Frame rate : 23.976 (24000/1001/53354) FPS

  27. Color space : YUV

  28. Chroma subsampling : 4:2:0

  29. Bit depth : 10 bits

  30. Bits/(Pixel*Frame) : 0.155

  31. Stream size : 4.71 GiB (45%)

  32. Title : HEVC, x265Main10@L5.1@High, 24/1.001 fps @ 5719 kbps

  33. Writing library : x265 3.4+14-gd419c7152:[Windows][GCC 10.2.0][64 bit] 10bit

  34. Encoding settings : cpuid=533541111039 / frame-threads=5 / numa-pools=44,44 / wpp / pmode / pme / no-psnr / no-ssim / log-level=2 / input-csp=1 / input-res=1920x804 / interlace=0 / total-frames=169514 / level-idc=51 / high-tier=1 / uhd-bd=0 / ref=5 / no-allow-non-conformance / no-repeat-headers / annexb / no-aud / no-hrd / info / hash=0 / no-temporal-layers / open-gop / min-keyint=24 / keyint=240 / gop-lookahead=0 / bframes=6 / b-adapt=2 / b-pyramid / bframe-bias=0 / rc-lookahead=40 / lookahead-slices=0 / NTMzNTQ=uuDQuD2mJt9fsCf / scenecut=40 / hist-scenecut=0 / radl=0 / no-splice / no-intra-refresh / ctu=32 / min-cu-size=8 / no-rect / no-amp / max-tu-size=32 / tu-inter-depth=3 / tu-intra-depth=3 / limit-tu=4 / rdoq-level=2 / dynamic-rd=0.00 / no-ssim-rd / signhide / no-tskip / nr-intra=0 / nr-inter=0 / no-constrained-intra / no-strong-intra-smoothing / max-merge=4 / limit-refs=1 / limit-modes / me=3 / subme=4 / merange=25 / temporal-mvp / no-frame-dup / no-hme / weightp / weightb / no-analyze-src-pics / deblock=-3:-3 / no-sao / no-sao-non-deblock / rd=6 / selective-sao=0 / no-early-skip / rskip / no-fast-intra / no-tskip-fast / no-cu-lossless / b-intra / no-splitrd-skip / rdpenalty=0 / psy-rd=2.00 / psy-rdoq=1.00 / no-rd-refine / no-lossless / cbqpoffs=0 / crqpoffs=0 / rc=crf / crf=17.0 / qcomp=0.65 / qpstep=4 / stats-write=0 / stats-read=0 / vbv-maxrate=80000 / vbv-bufsize=80000 / vbv-init=0.9 / crf-max=0.0 / crf-min=0.0 / ipratio=1.40 / pbratio=1.30 / aq-mode=2 / aq-strength=0.85 / cutree / zone-count=0 / no-strict-cbr / qg-size=32 / no-rc-grain / qpmax=69 / qpmin=0 / no-const-vbv / sar=1 / overscan=0 / videoformat=5 / range=0 / colorprim=1 / transfer=1 / colormatrix=1 / chromaloc=0 / display-window=0 / cll=0,0 / min-luma=0 / max-luma=1023 / log2-max-poc-lsb=8 / vui-timing-info / vui-hrd-info / slices=1 / no-opt-qp-pps / no-opt-ref-list-length-pps / no-multi-pass-opt-rps / scenecut-bias=0.05 / hist-threshold=0.03 / no-opt-cu-delta-qp / no-aq-motion / no-hdr10 / no-hdr10-opt / no-dhdr10-opt / no-idr-recovery-sei / analysis-reuse-level=0 / analysis-save-reuse-level=0 / analysis-load-reuse-level=0 / scale-factor=0 / refine-intra=0 / refine-inter=0 / refine-mv=1 / refine-ctu-distortion=0 / no-limit-sao / ctu-info=0 / no-lowpass-dct / refine-analysis-type=0 / copy-pic=1 / max-ausize-factor=1.0 / no-dynamic-refine / no-single-sei / no-hevc-aq / no-svt / no-field / qp-adaptation-range=1.00 / no-scenecut-aware-qpconformance-window-offsets / right=0 / bottom=0 / NTMzNTQ= / decoder-max-rate=0

  35. Language : English

  36. Default : Yes

  37. Forced : No

  38. Color range : Limited

  39. Color primaries : BT.709

  40. Transfer characteristics : BT.709

  41. Matrix coefficients : BT.709

  42. Audio #1

  43. ID : 2

  44. Format : DTS XLL

  45. Format/Info : Digital Theater Systems

  46. Commercial name : DTS-HD Master Audio

  47. Codec ID : A_DTS

  48. Duration : 1 h 57 min

  49. Bit rate mode : Variable

  50. Bit rate : 4 490 kb/s

  51. Channel(s) : 8 channels

  52. Channel layout : C L R LFE Lb Rb Lss Rss

  53. Sampling rate : 48.0 kHz

  54. Frame rate : 93.750 FPS (512 SPF)

  55. Bit depth : 24 bits

  56. Compression mode : Lossless

  57. Stream size : 3.70 GiB (35%)

  58. Title : English DTS-HD Master Audio 7.1 @ 4491 kbps

  59. Language : English

  60. Default : Yes

  61. Forced : No

  62. Audio #2

  63. ID : 3

  64. Format : AC-3

  65. Format/Info : Audio Coding 3

  66. Commercial name : Dolby Digital

  67. Codec ID : A_AC3

  68. Duration : 1 h 57 min

  69. Bit rate mode : Constant

  70. Bit rate : 640 kb/s

  71. Channel(s) : 6 channels

  72. Channel layout : L R C LFE Ls Rs

  73. Sampling rate : 48.0 kHz

  74. Frame rate : 31.250 FPS (1536 SPF)

  75. Compression mode : Lossy

  76. Stream size : 539 MiB (5%)

  77. Title : Cantonese Dolby Digital Audio 5.1 @ 640 kbps 粤语

  78. Language : Chinese

  79. Service kind : Complete Main

  80. Default : No

  81. Forced : No

  82. Audio #3

  83. ID : 4

  84. Format : AC-3

  85. Format/Info : Audio Coding 3

  86. Commercial name : Dolby Digital

  87. Codec ID : A_AC3

  88. Duration : 1 h 57 min

  89. Bit rate mode : Constant

  90. Bit rate : 640 kb/s

  91. Channel(s) : 6 channels

  92. Channel layout : L R C LFE Ls Rs

  93. Sampling rate : 48.0 kHz

  94. Frame rate : 31.250 FPS (1536 SPF)

  95. Compression mode : Lossy

  96. Stream size : 539 MiB (5%)

  97. Title : Mandarin Dolby Digital Audio 5.1 @ 640 kbps 国语

  98. Language : Chinese

  99. Service kind : Complete Main

  100. Default : No

  101. Forced : No

  102. Audio #4

  103. ID : 5

  104. Format : AC-3

  105. Format/Info : Audio Coding 3

  106. Commercial name : Dolby Digital

  107. Codec ID : A_AC3

  108. Duration : 1 h 57 min

  109. Bit rate mode : Constant

  110. Bit rate : 640 kb/s

  111. Channel(s) : 6 channels

  112. Channel layout : L R C LFE Ls Rs

  113. Sampling rate : 48.0 kHz

  114. Frame rate : 31.250 FPS (1536 SPF)

  115. Compression mode : Lossy

  116. Stream size : 539 MiB (5%)

  117. Title : Mandarin Dolby Digital Audio 5.1 @ 640 kbps 台配国语

  118. Language : Chinese

  119. Service kind : Complete Main

  120. Default : No

  121. Forced : No

  122. Audio #5

  123. ID : 6

  124. Format : AC-3

  125. Format/Info : Audio Coding 3

  126. Commercial name : Dolby Digital

  127. Codec ID : A_AC3

  128. Duration : 1 h 57 min

  129. Bit rate mode : Constant

  130. Bit rate : 320 kb/s

  131. Channel(s) : 2 channels

  132. Channel layout : L R

  133. Sampling rate : 48.0 kHz

  134. Frame rate : 31.250 FPS (1536 SPF)

  135. Compression mode : Lossy

  136. Stream size : 270 MiB (3%)

  137. Title : English Dolby Digital Audio 2.0 @ 320 kbps Commentary

  138. Language : English

  139. Service kind : Complete Main

  140. Default : No

  141. Forced : No

  142. Text #1

  143. ID : 7

  144. Format : PGS

  145. Codec ID : S_HDMV/PGS

  146. Codec ID/Info : Picture based subtitle format used on BDs/HD-DVDs

  147. Duration : 1 h 56 min

  148. Bit rate : 42.7 kb/s

  149. Count of elements : 3522

  150. Stream size : 35.5 MiB (0%)

  151. Title : Eng/SUP

  152. Language : English

  153. Default : No

  154. Forced : No

  155. Text #2

  156. ID : 8

  157. Format : PGS

  158. Codec ID : S_HDMV/PGS

  159. Codec ID/Info : Picture based subtitle format used on BDs/HD-DVDs

  160. Duration : 1 h 56 min

  161. Bit rate : 34.1 kb/s

  162. Count of elements : 3542

  163. Stream size : 28.3 MiB (0%)

  164. Title : Chs/SUP 原盘简体

  165. Language : Chinese

  166. Default : Yes

  167. Forced : No

  168. Text #3

  169. ID : 9

  170. Format : PGS

  171. Codec ID : S_HDMV/PGS

  172. Codec ID/Info : Picture based subtitle format used on BDs/HD-DVDs

  173. Duration : 1 h 56 min

  174. Bit rate : 24.7 kb/s

  175. Count of elements : 3526

  176. Stream size : 20.5 MiB (0%)

  177. Title : Cht/SUP 原盘繁体

  178. Language : Chinese

  179. Default : No

  180. Forced : No

  181. Text #4

  182. ID : 10

  183. Format : PGS

  184. Codec ID : S_HDMV/PGS

  185. Codec ID/Info : Picture based subtitle format used on BDs/HD-DVDs

  186. Duration : 1 h 56 min

  187. Bit rate : 27.9 kb/s

  188. Count of elements : 3526

  189. Stream size : 23.2 MiB (0%)

  190. Title : Cht/SUP 原盘繁体

  191. Language : Chinese

  192. Default : No

  193. Forced : No

  194. Text #5

  195. ID : 11

  196. Format : PGS

  197. Codec ID : S_HDMV/PGS

  198. Codec ID/Info : Picture based subtitle format used on BDs/HD-DVDs

  199. Duration : 1 h 56 min

  200. Bit rate : 32.3 kb/s

  201. Count of elements : 4167

  202. Stream size : 26.8 MiB (0%)

  203. Title : Cht/SUP 原盘繁体

  204. Language : Chinese

  205. Default : No

  206. Forced : No

  207. Text #6

  208. ID : 12

  209. Format : PGS

  210. Codec ID : S_HDMV/PGS

  211. Codec ID/Info : Picture based subtitle format used on BDs/HD-DVDs

  212. Duration : 1 h 56 min

  213. Bit rate : 65.3 kb/s

  214. Count of elements : 3896

  215. Stream size : 54.7 MiB (1%)

  216. Title : Eng/SUP Commentary

  217. Language : English

  218. Default : No

  219. Forced : No

  220. Text #7

  221. ID : 13

  222. Format : PGS

  223. Codec ID : S_HDMV/PGS

  224. Codec ID/Info : Picture based subtitle format used on BDs/HD-DVDs

  225. Duration : 1 h 56 min

  226. Bit rate : 43.6 kb/s

  227. Count of elements : 3898

  228. Stream size : 36.5 MiB (0%)

  229. Title : Cht/SUP 原盘繁体 Commentary

  230. Language : Chinese

  231. Default : No

  232. Forced : No

  233. Menu

  234. 00:00:00.000 : :第 01 章

  235. 00:09:14.554 : :第 02 章

  236. 00:11:32.734 : :第 03 章

  237. 00:13:31.352 : :第 04 章

  238. 00:17:08.527 : :第 05 章

  239. 00:20:44.910 : :第 06 章

  240. 00:26:53.529 : :第 07 章

  241. 00:30:42.215 : :第 08 章

  242. 00:34:54.592 : :第 09 章

  243. 00:41:27.235 : :第 10 章

  244. 00:46:01.675 : :第 11 章

  245. 00:48:54.515 : :第 12 章

  246. 00:50:02.124 : :第 13 章

  247. 00:54:01.780 : :第 14 章

  248. 00:57:09.551 : :第 15 章

  249. 01:00:35.799 : :第 16 章

  250. 01:05:04.859 : :第 17 章

  251. 01:10:53.708 : :第 18 章

  252. 01:12:57.915 : :第 19 章

  253. 01:16:27.583 : :第 20 章

  254. 01:19:19.213 : :第 21 章

  255. 01:21:13.911 : :第 22 章

  256. 01:23:59.659 : :第 23 章

  257. 01:27:05.637 : :第 24 章

  258. 01:30:29.841 : :第 25 章

  259. 01:32:47.395 : :第 26 章

  260. 01:33:33.024 : :第 27 章

  261. 01:34:30.540 : :第 28 章

  262. 01:37:03.151 : :第 29 章

  263. 01:41:58.070 : :第 30 章

  264. 01:45:40.000 : :第 31 章

  265. 01:47:33.322 : :第 32 章


复制代码


TAGS 动作 冒险 动画 喜剧 /

磁力链:
  • magnet:?xt=urn:btih:5CDB3025D0EFD4091BEA507F7AF61FC2F5884D33
上传的附件:
BT9527电影天堂 1、BT9527电影天堂提供的BT文件均来源于互联网抓取,只供网友学习交流、技术提升使用。
2、我们遵守BitTorrent点对点协议原则,任何版权问题请联系原资源发布商,我们不处理任何版权纠纷,谢谢!如有争议请联系邮箱:BT9527#hotmail.com(#换成@)
3、如果您发现某页面或地址有错误,请联系站长邮箱BT9527#hotmail.com(#换成@),我们会尽快处理。您的热心是对BT9527电影天堂最大的支持。
4、本站建议去正规影院观看电影以支持电影行业发展。
最新回复 (0)

你可以在 登录 or 注册 后,对此帖发表评论!

返回
发新帖