仙境之桥[国英多音轨/中英字幕].Bridge.to.Terabithia.2007.BluRay.1080p.x265.10bit.2Audio-MiniHD 5.98GB

版主小s 1月前 216

◎译 名 仙境之桥 / 通往特雷比西亚的桥 / 寻找梦奇地

◎片 名 Bridge to Terabithia

◎年 代 2007

◎产 地 美国

◎类 别 剧情 / 奇幻 / 冒险

◎语 言 英语

◎上映日期 2009-01-26(中国大陆) / 2007-02-16(美国)

◎IMDb链接 https://www.imdb.com/title/tt0398808/

◎豆瓣评分 7.9/10 (70706人评价)

◎豆瓣链接 https://movie.douban.com/subject/1860745/

◎片 长 96 分钟

◎导 演 嘉柏·丘波 Gabor Csupo (id:1027643)

◎编 剧 杰夫·斯托克韦尔 Jeff Stockwell (id:1298467)

凯瑟琳·帕特森 Katherine Paterson (id:1042084)

◎演 员 乔什·哈切森 Josh Hutcherson (id:1053556)

安娜索菲亚·罗伯 AnnaSophia Robb (id:1183788)

佐伊·丹斯切尔 Zooey Deschanel (id:1013758)

罗伯特·帕特里克 Robert Patrick (id:1041135)

拜莉·麦迪逊 Bailee Madison (id:1027242)

凯特·巴特勒 Kate Butler (id:1345055)

Devon Wood Devon Wood (id:1310529)

艾玛·芬顿 Emma Fenton (id:1311306)

Grace Brannigan Grace Brannigan (id:1310023)

莱瑟姆·盖恩斯 Latham Gaines (id:1171730)

Judy McIntosh Judy McIntosh (id:1291619)

帕特里夏·奥尔德斯利 Patricia Aldersley (id:1313145)

Lauren Clinton Lauren Clinton (id:1182153)

Isabelle Rose Kircher Isabelle Rose Kircher (id:1310183)

Cameron Wakefield (id:1229994)

Elliot Lawless (id:1255543)

Carly Owen (id:1227098)

詹姆斯·盖林 James Gaylyn (id:1411070)

Tyler Atfield (id:1245177)

Maisy McLeod-Riera Maisy McLeod-Riera (id:1189091)

Matt Gibbons Matt Gibbons (id:1362952)

菲利普·格里夫 Philip Grieve (id:1216537)

Dwight Wilson II Dwight Wilson II (id:1175903)

谢尔碧·杨 Shelby Young (id:1198892)

斯蒂芬妮娅·欧文 Stefania Owen (id:1242958)

◎简 介

杰西(乔什·哈切森 Josh Hutcherson 饰)是个过得不怎么快乐的孩子。他在学校里受同学欺负,在家中又无法得到父母的宠爱。只有两个人能为他的童年带来亮光——一个是音乐老师,另一个便是刚转校来到班上的莱斯利(安娜索菲亚·罗伯 Annasophia Robb 饰)。

莱斯利以她独特的方式感染了生活暗淡的杰西,慢慢打开了他的生活的另一扇窗。在河的另一边,他们要建造一个叫做“特雷比西亚”的王国,他们在树上打造一个屋子,王国的成员有妖怪、马蜂军团、松鼠和秃鹰。这个幻想的天地创造了他们每天放学后最好的时光。

然而,童话毕竟太虚幻,杰西和莱斯利的特雷比西亚世界,迎来了风雨飘摇的一天……

  1. ##### MediaInfo ######

  2. General

  3. Unique ID : 243758508317243935201118423650718636877 (0xB7622E586C66212AB27CD40B74FADB4D)

  4. Complete name : Bridge.to.Terabithia.2007.BluRay.1080p.x265.10bit.2Audio-MiniHD.mkv

  5. Format : Matroska

  6. Format version : Version 4

  7. File size : 5.98 GiB

  8. Duration : 1 h 35 min

  9. Overall bit rate : 8 992 kb/s

  10. Encoded date : UTC 2017-06-03 11:01:24

  11. Writing application : mkvmerge v11.0.0 ('Alive') 64bit

  12. Writing library : libebml v1.3.4 + libmatroska v1.4.5

  13. Video

  14. ID : 1

  15. Format : HEVC

  16. Format/Info : High Efficiency Video Coding

  17. Codec ID : V_MPEGH/ISO/HEVC

  18. Duration : 1 h 35 min

  19. Bit rate : 7 843 kb/s

  20. Width : 1 920 pixels

  21. Height : 1 036 pixels

  22. Display aspect ratio : 1.85:1

  23. Frame rate mode : Constant

  24. Frame rate : 23.976 (24000/1001/53354) FPS

  25. Bits/(Pixel*Frame) : 0.164

  26. Stream size : 5.21 GiB (87%)

  27. Default : Yes

  28. Forced : No

  29. Audio #1

  30. ID : 2

  31. Format : AC-3

  32. Format/Info : Audio Coding 3

  33. Commercial name : Dolby Digital

  34. Codec ID : A_AC3

  35. Duration : 1 h 35 min

  36. Bit rate mode : Constant

  37. Bit rate : 640 kb/s

  38. Channel(s) : 6 channels

  39. Channel layout : L R C LFE Ls Rs

  40. Sampling rate : 48.0 kHz

  41. Frame rate : 31.250 FPS (1536 SPF)

  42. Compression mode : Lossy

  43. Stream size : 435 MiB (7%)

  44. Language : English

  45. Service kind : Complete Main

  46. Default : Yes

  47. Forced : No

  48. Audio #2

  49. ID : 3

  50. Format : AC-3

  51. Format/Info : Audio Coding 3

  52. Commercial name : Dolby Digital

  53. Codec ID : A_AC3

  54. Duration : 1 h 35 min

  55. Bit rate mode : Constant

  56. Bit rate : 448 kb/s

  57. Channel(s) : 6 channels

  58. Channel layout : L R C LFE Ls Rs

  59. Sampling rate : 48.0 kHz

  60. Frame rate : 31.250 FPS (1536 SPF)

  61. Compression mode : Lossy

  62. Stream size : 305 MiB (5%)

  63. Language : Chinese

  64. Service kind : Complete Main

  65. Default : No

  66. Forced : No

  67. Text #1

  68. ID : 4

  69. Format : PGS

  70. Muxing mode : zlib

  71. Codec ID : S_HDMV/PGS

  72. Codec ID/Info : Picture based subtitle format used on BDs/HD-DVDs

  73. Duration : 1 h 27 min

  74. Bit rate : 11.1 kb/s

  75. Count of elements : 2138

  76. Stream size : 6.93 MiB (0%)

  77. Language : English

  78. Default : Yes

  79. Forced : No

  80. Text #2

  81. ID : 5

  82. Format : PGS

  83. Muxing mode : zlib

  84. Codec ID : S_HDMV/PGS

  85. Codec ID/Info : Picture based subtitle format used on BDs/HD-DVDs

  86. Duration : 1 h 31 min

  87. Bit rate : 15.8 kb/s

  88. Count of elements : 1890

  89. Stream size : 10.3 MiB (0%)

  90. Language : Chinese

  91. Default : No

  92. Forced : No

  93. Text #3

  94. ID : 6

  95. Format : PGS

  96. Muxing mode : zlib

  97. Codec ID : S_HDMV/PGS

  98. Codec ID/Info : Picture based subtitle format used on BDs/HD-DVDs

  99. Duration : 1 h 31 min

  100. Bit rate : 9 702 b/s

  101. Count of elements : 1890

  102. Stream size : 6.32 MiB (0%)

  103. Language : Chinese

  104. Default : No

  105. Forced : No

  106. Text #4

  107. ID : 7

  108. Format : PGS

  109. Muxing mode : zlib

  110. Codec ID : S_HDMV/PGS

  111. Codec ID/Info : Picture based subtitle format used on BDs/HD-DVDs

  112. Duration : 1 h 31 min

  113. Bit rate : 9 972 b/s

  114. Count of elements : 1890

  115. Stream size : 6.49 MiB (0%)

  116. Language : Chinese

  117. Default : No

  118. Forced : No

  119. Text #5

  120. ID : 8

  121. Format : PGS

  122. Muxing mode : zlib

  123. Codec ID : S_HDMV/PGS

  124. Codec ID/Info : Picture based subtitle format used on BDs/HD-DVDs

  125. Duration : 1 h 31 min

  126. Bit rate : 15.9 kb/s

  127. Count of elements : 1890

  128. Stream size : 10.4 MiB (0%)

  129. Language : Chinese

  130. Default : No

  131. Forced : No

  132. Menu

  133. 00:00:00.000 : en:Chapter 01

  134. 00:04:39.237 : en:Chapter 02

  135. 00:10:00.558 : en:Chapter 03

  136. 00:17:17.077 : en:Chapter 04

  137. 00:22:50.160 : en:Chapter 05

  138. 00:29:35.106 : en:Chapter 06

  139. 00:35:53.651 : en:Chapter 07

  140. 00:42:49.275 : en:Chapter 08

  141. 00:48:13.223 : en:Chapter 09

  142. 00:54:41.569 : en:Chapter 10

  143. 01:05:31.802 : en:Chapter 11

  144. 01:09:36.589 : en:Chapter 12

  145. 01:12:54.370 : en:Chapter 13

  146. 01:14:43.854 : en:Chapter 14

  147. 01:19:37.564 : en:Chapter 15

  148. 01:22:29.903 : en:Chapter 16


复制代码


TAGS 奇幻 冒险 剧情 /

磁力链:
  • magnet:?xt=urn:btih:908348CC9E59AF958293A984F4453AE57DCBB7CE
上传的附件:
BT9527电影天堂 1、BT9527电影天堂提供的BT文件均来源于互联网抓取,只供网友学习交流、技术提升使用。
2、我们遵守BitTorrent点对点协议原则,任何版权问题请联系原资源发布商,我们不处理任何版权纠纷,谢谢!如有争议请联系邮箱:BT9527#hotmail.com(#换成@)
3、如果您发现某页面或地址有错误,请联系站长邮箱BT9527#hotmail.com(#换成@),我们会尽快处理。您的热心是对BT9527电影天堂最大的支持。
4、本站建议去正规影院观看电影以支持电影行业发展。
最新回复 (0)

你可以在 登录 or 注册 后,对此帖发表评论!

返回
发新帖