亚瑟王:斗兽争霸[中英字幕].King.Arthur.Legend.of.the.Sword.2017.BluRay.1080p.x265.10bit-MiniHD 6.63GB

版主小s 29天前 232

◎译 名 亚瑟王:斗兽争霸 / 亚瑟王:圣剑传奇 / 亚瑟:王者之剑(台) / 神剑亚瑟王(港) / 亚瑟王:圆桌骑士 / 亚瑟王:剑之传奇 / 亚瑟王:石中剑传说 / 新亚瑟王 / 圆桌骑士 / King Arthur

◎片 名 King Arthur: Legend of the Sword

◎年 代 2017

◎产 地 英国 / 美国 / 澳大利亚

◎类 别 动作 / 奇幻 / 冒险

◎语 言 英语

◎上映日期 2017-05-12(中国大陆/美国)

◎IMDb链接 https://www.imdb.com/title/tt1972591/

◎豆瓣评分 6.9/10 (65526人评价)

◎豆瓣链接 https://movie.douban.com/subject/25864124/

◎片 长 126分钟

◎导 演 盖·里奇 Guy Ritchie (id:1025148)

◎编 剧 卓比·哈罗德 Joby Harold (id:1314004)

盖·里奇 Guy Ritchie (id:1025148)

莱昂内尔·威格拉姆 Lionel Wigram (id:1300891)

大卫·道金 David Dobkin (id:1009599)

◎演 员 查理·汉纳姆 Charlie Hunnam (id:1000024)

裘德·洛 Jude Law (id:1010510)

阿斯特丽德·伯格斯-弗瑞斯贝 àstrid Bergès-Frisbey (id:1227601)

米卡埃尔·佩斯布兰特 Mikael Persbrandt (id:1027504)

杰曼·翰苏 Djimon Hounsou (id:1044880)

安娜贝拉·沃丽丝 Annabelle Wallis (id:1315815)

艾瑞克·巴纳 Eric Bana (id:1016693)

艾丹·吉伦 Aidan Gillen (id:1044961)

尼尔·马斯克尔 Neil Maskell (id:1339918)

赫敏·科菲尔德 Hermione Corfield (id:1350742)

凯蒂·麦克格雷斯 Katie McGrath (id:1274964)

杰奎·安斯蕾 Jacqui Ainsley (id:1338117)

弗莱迪·福克斯 Freddie Fox (id:1315211)

波比·迪瓦伊 Poppy Delevingne (id:1341158)

朱利安·西格尔 Julian Seager (id:1331769)

大卫·贝克汉姆 David Beckham (id:1044927)

杰夫·贝尔 Geoff Bell (id:1321777)

米莉·布拉迪 Millie Brady (id:1354676)

乔治娜·坎贝尔 Georgina Campbell (id:1362218)

丹尼尔·斯蒂森 Daniel Stisen (id:1352422)

伊琳·珀威尔 Eline Powell (id:1337097)

迈克尔·麦克埃尔哈顿 Michael McElhatton (id:1291550)

阿德里安·布薛特 Adrian Bouchet (id:1319199)

彼得·费迪南多 Peter Ferdinando (id:1332724)

汤姆·吴 Tom Wu (id:1346199)

金斯利·本-阿迪尔 Kingsley Ben-Adir (id:1369740)

盖·里奇 Guy Ritchie (id:1025148)

罗布·奈顿 Rob Knighton (id:1374194)

蕾贝卡·卡尔德 Rebecca Calder (id:1423736)

柯德丽亚·巴基雅 Cordelia Bugeja (id:1032536)

马克·坎巴斯 Mark Umbers (id:1149297)

查理·罗尔斯 Charlie Rawes (id:1395007)

威尔·柯班 Wil Coban (id:1398119)

Barney Walsh Barney Walsh (id:1374193)

卡米尔·雷米泽斯基 Kamil Lemieszewski (id:1390233)

彼得·吉尼斯 Peter Guinness (id:1348295)

盖·里奇 Guy Ritchie (id:1025148)

丹尼尔·彭博顿 Daniel Pemberton (id:1373894)

安妮·西蒙斯 Annie Symons (id:1298755)

瑞恩·艾伦 Ryan Allen (id:1247853)

◎简 介

故事发生在遥远的1500年前,沃提根(裘德·洛 Jude Law 饰)背叛了自己的哥哥尤瑟王(艾瑞克·巴纳 Eric Bana 饰),导致了人类和巫师之间维系了百年的平衡被打破。幸运的是,尤瑟王唯一的后裔逃过了一劫,这令他的血脉并不至于就此断绝。

一晃眼15年过去,小小的婴儿被取名为亚瑟(查理·汉纳姆 Charlie Hunnam 饰),成长在社会的最底层,并且对自己的身世一无所知。沃提根杀死了哥哥之后独揽大权,施展自己的铁腕统治手段,一时间民不聊生。一次偶然中,亚瑟拔出了一把深深插进了巨石中的宝剑,在传说中,这把剑只有拥有王室血统的人才能够举起。这一消息很快就传到了沃提根的耳中,亚瑟遭到了逮捕。

◎获奖情况 (共1项)

第4届豆瓣电影年度榜单 (2017)

5月最受关注电影(提名)

  1. ##### MediaInfo ######

  2. General

  3. Unique ID : 223657392756941559704844565694794524554 (0xA842D8D4F42C03B58E19DCC5B315678A)

  4. Complete name : King.Arthur.Legend.of.the.Sword.2017.BluRay.1080p.x265.10bit-MiniHD.mkv

  5. Format : Matroska

  6. Format version : Version 4

  7. File size : 6.62 GiB

  8. Duration : 2 h 6 min

  9. Overall bit rate : 7 512 kb/s

  10. Encoded date : UTC 2017-07-28 01:06:13

  11. Writing application : mkvmerge v11.0.0 ('Alive') 64bit

  12. Writing library : libebml v1.3.4 + libmatroska v1.4.5

  13. Video

  14. ID : 1

  15. Format : HEVC

  16. Format/Info : High Efficiency Video Coding

  17. Codec ID : V_MPEGH/ISO/HEVC

  18. Duration : 2 h 6 min

  19. Bit rate : 6 915 kb/s

  20. Width : 1 920 pixels

  21. Height : 800 pixels

  22. Display aspect ratio : 2.40:1

  23. Frame rate mode : Constant

  24. Frame rate : 23.976 (24000/1001/53354) FPS

  25. Bits/(Pixel*Frame) : 0.188

  26. Stream size : 6.10 GiB (92%)

  27. Default : Yes

  28. Forced : No

  29. Audio

  30. ID : 2

  31. Format : AC-3

  32. Format/Info : Audio Coding 3

  33. Commercial name : Dolby Digital

  34. Codec ID : A_AC3

  35. Duration : 2 h 6 min

  36. Bit rate mode : Constant

  37. Bit rate : 448 kb/s

  38. Channel(s) : 6 channels

  39. Channel layout : L R C LFE Ls Rs

  40. Sampling rate : 48.0 kHz

  41. Frame rate : 31.250 FPS (1536 SPF)

  42. Compression mode : Lossy

  43. Stream size : 404 MiB (6%)

  44. Language : English

  45. Service kind : Complete Main

  46. Default : Yes

  47. Forced : No

  48. Text #1

  49. ID : 3

  50. Format : PGS

  51. Muxing mode : zlib

  52. Codec ID : S_HDMV/PGS

  53. Codec ID/Info : Picture based subtitle format used on BDs/HD-DVDs

  54. Language : English

  55. Default : Yes

  56. Forced : No

  57. Text #2

  58. ID : 4

  59. Format : PGS

  60. Muxing mode : zlib

  61. Codec ID : S_HDMV/PGS

  62. Codec ID/Info : Picture based subtitle format used on BDs/HD-DVDs

  63. Language : Chinese

  64. Default : No

  65. Forced : No

  66. Text #3

  67. ID : 5

  68. Format : PGS

  69. Muxing mode : zlib

  70. Codec ID : S_HDMV/PGS

  71. Codec ID/Info : Picture based subtitle format used on BDs/HD-DVDs

  72. Language : Chinese

  73. Default : No

  74. Forced : No

  75. Text #4

  76. ID : 6

  77. Format : PGS

  78. Muxing mode : zlib

  79. Codec ID : S_HDMV/PGS

  80. Codec ID/Info : Picture based subtitle format used on BDs/HD-DVDs

  81. Language : Chinese

  82. Default : No

  83. Forced : No

  84. Text #5

  85. ID : 7

  86. Format : PGS

  87. Muxing mode : zlib

  88. Codec ID : S_HDMV/PGS

  89. Codec ID/Info : Picture based subtitle format used on BDs/HD-DVDs

  90. Language : Chinese

  91. Default : No

  92. Forced : No

  93. Menu

  94. 00:00:00.000 : en:Chapter 01

  95. 00:12:43.220 : en:Chapter 02

  96. 00:21:05.347 : en:Chapter 03

  97. 00:32:32.659 : en:Chapter 04

  98. 00:43:09.378 : en:Chapter 05

  99. 00:56:47.987 : en:Chapter 06

  100. 01:06:48.546 : en:Chapter 07

  101. 01:14:13.031 : en:Chapter 08

  102. 01:23:44.394 : en:Chapter 09

  103. 01:36:36.791 : en:Chapter 10

  104. 01:46:57.244 : en:Chapter 11

  105. 01:58:58.798 : en:Chapter 12


复制代码


TAGS 动作 奇幻 冒险 /

磁力链:
  • magnet:?xt=urn:btih:5D4A06B122744914801F8E17062F0599BB5C8127
上传的附件:
BT9527电影天堂 1、BT9527电影天堂提供的BT文件均来源于互联网抓取,只供网友学习交流、技术提升使用。
2、我们遵守BitTorrent点对点协议原则,任何版权问题请联系原资源发布商,我们不处理任何版权纠纷,谢谢!如有争议请联系邮箱:BT9527#hotmail.com(#换成@)
3、如果您发现某页面或地址有错误,请联系站长邮箱BT9527#hotmail.com(#换成@),我们会尽快处理。您的热心是对BT9527电影天堂最大的支持。
4、本站建议去正规影院观看电影以支持电影行业发展。
最新回复 (0)

你可以在 登录 or 注册 后,对此帖发表评论!

返回
发新帖