乱世佳人[国英多音轨/简繁英字幕].Gone.with.the.Wind.1939.BluRay.1080p.x265.10bit.9Audio-MiniHD 11.94GB

版主小s 29天前 209



◎译  名 乱世佳人 / 飘
◎片  名 Gone with the Wind
◎年  代 1939
◎产  地 美国
◎类  别 剧情 / 爱情 / 历史 / 战争
◎语  言 英语
◎上映日期 1939-12-15(亚特兰大首映) / 1940-01-17(美国)
◎IMDb链接 https://www.imdb.com/title/tt0031381/
◎豆瓣评分 9.3/10 (628752人评价)
◎豆瓣链接 https://movie.douban.com/subject/1300267/
◎片  长 238分钟
◎导  演 维克多·弗莱明 Victor Fleming (id:1032275)
       乔治·库克 George Cukor (id:1010711)
       山姆·伍德 Sam Wood (id:1012588)
◎编  剧 玛格丽特·米歇尔 Margaret Mitchell (id:1041639)
       西德尼·霍华德 Sidney Howard (id:1010050)
       奥利弗·H·P·加勒特 Oliver H.P. Garrett (id:1048600)
       本·赫克特 Ben Hecht (id:1032523)
       乔·斯沃林 Jo Swerling (id:1001422)
       约翰·范·德鲁登 John Van Druten (id:1019629)
◎演  员 费雯·丽 Vivien Leigh (id:1010506)
       克拉克·盖博 Clark Gable (id:1006997)
       奥利维娅·德哈维兰 Olivia de Havilland (id:1010604)
       托马斯·米切尔 Thomas Mitchell (id:1124117)
       芭芭拉·欧内尔 Barbara O'Neil (id:1009640)
       伊夫林·凯耶斯 Evelyn Keyes (id:1041266)
       安·卢瑟福德 Ann Rutherford (id:1040829)
       乔治·里弗斯 George Reeves (id:1014025)
       弗莱德·克莱恩 Fred Crane (id:1041036)
       海蒂·麦克丹尼尔斯 Hattie McDaniel (id:1018116)
       奥斯卡·波尔克 Oscar Polk (id:1134730)
       巴特弗莱·麦昆 Butterfly McQueen (id:1115336)
       维克托·乔里 Victor Jory (id:1107018)
       埃弗雷特·布朗 Everett Brown (id:1073158)
       霍华德·C·希克曼 Howard C. Hickman (id:1054226)
       艾丽西亚·瑞特 Alicia Rhett (id:1148325)
       莱斯利·霍华德 Leslie Howard (id:1000293)
       兰德·布鲁克斯 Rand Brooks (id:1076164)
       卡洛尔·奈 Carroll Nye (id:1126380)
       劳拉·霍普·克鲁斯 Laura Hope Crews (id:1077412)
       埃迪·安德森 Eddie 'Rochester' Anderson (id:1050163)
       哈里·达文波特 Harry Davenport (id:1056182)
       利昂娜·罗伯特 Leona Roberts (id:1142582)
       简·达威尔 Jane Darwell (id:1027976)
       欧娜·满森 Ona Munson (id:1018507)
       保罗·赫斯特 Paul Hurst (id:1027799)
       伊莎贝尔·朱尔 Isabel Jewell (id:1012609)
       卡米·金·肯伦 Cammie King Conlon (id:1105692)
       艾瑞克·林登 Eric Linden (id:1050916)
       J·M·克里根 J.M. Kerrigan (id:1106495)
       沃德·邦德 Ward Bond (id:1002795)
       莉莲·肯布尔-库珀 Lillian Kemble-Cooper (id:1102921)
       李守贞 Shouzhen Li (id:1356294)
       唐烨 Ye Tang (id:1439288)
       吴文伦 Wenlun Wu (id:1341235)
       查曼若 Manruo Zha (id:1370101)
       彭河 He Peng (id:1344887)
       大卫·O·塞尔兹尼克 David O. Selznick (id:1048274)
       马克思·斯坦纳 Max Steiner (id:1048318)
       霍华德·布里斯托尔 Howard Bristol (id:1279330)
       沃尔特·普朗凯特 Walter Plunkett (id:1019459)
       Paul Stanhope Paul Stanhope (id:1298248)
       克拉伦斯·斯利弗 Clarence Slifer (id:1297784)

◎简  介
  美国南北战争前夕,南方农场塔拉庄园的千金斯嘉丽(费雯·丽 Vivien Leigh 饰)爱上了另一个农场主的儿子艾希礼(莱斯利·霍华德 Leslie Howard 饰),遭到了拒绝,为了报复,她嫁给了自己不爱的男人,艾希礼妻子梅兰妮(奥利维娅·德哈维兰 Olivia de Havilland 饰)的弟弟查尔斯。                                    
                                战争期间,斯嘉丽成为寡妇,失去母亲,挑起生活的重担, 不再是当初的千金小姐;战争结束后,她又两度为人妻,嫁给了爱她多年的投机商人瑞德(克拉克·盖博 Clark Gable 饰)。                                    
                                然而,纵使经历了生活的艰苦,斯嘉丽对艾希礼的感情仍然没有改变。艾希礼妻子梅兰妮的去世,给了斯嘉丽一个机会,一边是深爱自己的丈夫瑞德,一边是心心念念多年的艾希礼?斯嘉丽会给自己怎样一个不一样的明天?

◎获奖情况 (共15项)
  第12届奥斯卡金像奖 (1940)
  最佳影片
  最佳导演
   └──维克多·弗莱明 (id:1032275)
  最佳男主角(提名)
   └──克拉克·盖博 (id:1006997)
  最佳女主角
   └──费雯·丽 (id:1010506)
  最佳女配角
   └──海蒂·麦克丹尼尔斯 (id:1018116)
  最佳女配角(提名)
   └──奥利维娅·德哈维兰 (id:1010604)
  最佳编剧
   └──西德尼·霍华德 (id:1010050)
  彩色片最佳摄影
  最佳剪辑
  最佳特效(提名)
  最佳录音(提名)
   └──托马斯·T·莫尔顿 (id:1127089)
  最佳艺术指导
   └──莱尔·R·惠勒 (id:1005785)
  最佳原创配乐(提名)
   └──马克思·斯坦纳 (id:1048318)
  终身成就奖
   └──威廉·卡梅伦·孟席斯 (id:1025480)
  科技成就奖
   └──R·D·马斯格雷夫 (id:1126413)

  1. ##### MediaInfo ######
  2. General
  3. Unique ID                                : 250149132366171635398027081897454823082 (0xBC30F86FFA62412782E684FE4CFB66AA)
  4. Complete name                            : Gone.with.the.Wind.1939.BluRay.1080p.x265.10bit.9Audio-MiniHD.mkv
  5. Format                                   : Matroska
  6. Format version                           : Version 4
  7. File size                                : 11.9 GiB
  8. Duration                                 : 3 h 53 min
  9. Overall bit rate                         : 7 327 kb/s
  10. Encoded date                             : UTC 2017-11-07 15:45:01
  11. Writing application                      : mkvmerge v17.0.0 ('Be Ur Friend') 64-bit
  12. Writing library                          : libebml v1.3.5 + libmatroska v1.4.8
  13. Video
  14. ID                                       : 1
  15. Format                                   : HEVC
  16. Format/Info                              : High Efficiency Video Coding
  17. Format profile                           : Main 10@L4@Main
  18. Codec ID                                 : V_MPEGH/ISO/HEVC
  19. Duration                                 : 3 h 53 min
  20. Bit rate                                 : 4 850 kb/s
  21. Width                                    : 1 480 pixels
  22. Height                                   : 1 080 pixels
  23. Display aspect ratio                     : 1.370
  24. Frame rate mode                          : Constant
  25. Frame rate                               : 23.976 (24000/1001/53354) FPS
  26. Color space                              : YUV
  27. Chroma subsampling                       : 4:2:0
  28. Bit depth                                : 10 bits
  29. Bits/(Pixel*Frame)                       : 0.127
  30. Stream size                              : 7.90 GiB (66%)
  31. Writing library                          : x265 2.2+5-e40db0bdde4a:[Windows][GCC 6.2.0][64 bit] 10bit
  32. Encoding settings                        : cpuid=533541173503 / frame-threads=6 / numa-pools=36 / wpp / no-pmode / no-pme / no-psnr / no-ssim / log-level=2 / input-csp=1 / input-res=1480x1080 / interlace=0 / total-frames=335552 / level-idc=0 / high-tier=1 / uhd-bd=0 / ref=5 / no-allow-non-conformance / no-repeat-headers / annexb / no-aud / no-hrd / info / hash=0 / no-temporal-layers / no-open-gop / min-keyint=1 / keyint=360 / bframes=8 / b-adapt=2 / b-pyramid / bframe-bias=0 / rc-lookahead=60 / lookahead-slices=4 / NTMzNTQ=uuDQuD2mJt9fsCf / scenecut=40 / no-intra-refresh / ctu=32 / min-cu-size=8 / rect / no-amp / max-tu-size=16 / tu-inter-depth=2 / tu-intra-depth=2 / limit-tu=0 / rdoq-level=2 / signhide / no-tskip / nr-intra=0 / nr-inter=0 / no-constrained-intra / no-strong-intra-smoothing / max-merge=3 / limit-refs=3 / limit-modes / me=3 / subme=5 / merange=25 / temporal-mvp / weightp / weightb / no-analyze-src-pics / deblock=-1:-1 / no-sao / no-sao-non-deblock / rd=4 / no-early-skip / rskip / no-fast-intra / no-tskip-fast / no-cu-lossless / b-intra / rdpenalty=1 / psy-rd=2.00 / psy-rdoq=5.00 / no-rd-refine / analysis-mode=0 / no-lossless / cbqpoffs=-2 / crqpoffs=-2 / rc=crf / crf=21.0 / qcomp=0.65 / qpstep=4 / stats-write=0 / stats-read=0 / ipratio=1.40 / pbratio=1.30 / aq-mode=3 / aq-strength=0.80 / cutree / zone-count=0 / no-strict-cbr / qg-size=16 / no-rc-grain / qpmax=69 / qpmin=0 / sar=0 / overscan=0 / videoformat=5 / range=0 / colorprim=1 / transfer=2 / colormatrix=2 / chromaloc=0 / display-window=0 / max-cll=0,0 / min-luma=0 / max-luma=1023 / log2-max-poc-lsb=8 / vui-timing-info / vui-hrd-info / slices=1 / opt-qp-pps / opt-ref-list-length-pps / no-multi-pass-opt-rps / scenecut-bias=0.05 / no-opt-cu-delta-qp
  33. Default                                  : Yes
  34. Forced                                   : No
  35. Color range                              : Limited
  36. Color primaries                          : BT.709
  37. Audio #1
  38. ID                                       : 2
  39. Format                                   : AC-3
  40. Format/Info                              : Audio Coding 3
  41. Commercial name                          : Dolby Digital
  42. Codec ID                                 : A_AC3
  43. Duration                                 : 3 h 53 min
  44. Bit rate mode                            : Constant
  45. Bit rate                                 : 640 kb/s
  46. Channel(s)                               : 6 channels
  47. Channel layout                           : L R C LFE Ls Rs
  48. Sampling rate                            : 48.0 kHz
  49. Frame rate                               : 31.250 FPS (1536 SPF)
  50. Compression mode                         : Lossy
  51. Stream size                              : 1.04 GiB (9%)
  52. Title                                    : 英语原声
  53. Language                                 : English
  54. Service kind                             : Complete Main
  55. Default                                  : Yes
  56. Forced                                   : No
  57. Audio #2
  58. ID                                       : 3
  59. Format                                   : AC-3
  60. Format/Info                              : Audio Coding 3
  61. Commercial name                          : Dolby Digital
  62. Codec ID                                 : A_AC3
  63. Duration                                 : 3 h 53 min
  64. Bit rate mode                            : Constant
  65. Bit rate                                 : 384 kb/s
  66. Channel(s)                               : 6 channels
  67. Channel layout                           : L R C LFE Ls Rs
  68. Sampling rate                            : 48.0 kHz
  69. Frame rate                               : 31.250 FPS (1536 SPF)
  70. Compression mode                         : Lossy
  71. Stream size                              : 641 MiB (5%)
  72. Title                                    : 中录华纳国配(赵屹鸥、金霖)
  73. Language                                 : Chinese
  74. Service kind                             : Complete Main
  75. Default                                  : No
  76. Forced                                   : No
  77. Audio #3
  78. ID                                       : 4
  79. Format                                   : AC-3
  80. Format/Info                              : Audio Coding 3
  81. Commercial name                          : Dolby Digital
  82. Codec ID                                 : A_AC3
  83. Duration                                 : 3 h 53 min
  84. Bit rate mode                            : Constant
  85. Bit rate                                 : 192 kb/s
  86. Channel(s)                               : 2 channels
  87. Channel layout                           : L R
  88. Sampling rate                            : 48.0 kHz
  89. Frame rate                               : 31.250 FPS (1536 SPF)
  90. Compression mode                         : Lossy
  91. Stream size                              : 320 MiB (3%)
  92. Title                                    : 上译内参国配 (吴文伦、朱莎)
  93. Language                                 : Chinese
  94. Service kind                             : Complete Main
  95. Default                                  : No
  96. Forced                                   : No
  97. Audio #4
  98. ID                                       : 5
  99. Format                                   : AC-3
  100. Format/Info                              : Audio Coding 3
  101. Commercial name                          : Dolby Digital
  102. Codec ID                                 : A_AC3
  103. Duration                                 : 3 h 53 min
  104. Bit rate mode                            : Constant
  105. Bit rate                                 : 192 kb/s
  106. Channel(s)                               : 2 channels
  107. Channel layout                           : L R
  108. Sampling rate                            : 48.0 kHz
  109. Frame rate                               : 31.250 FPS (1536 SPF)
  110. Compression mode                         : Lossy
  111. Stream size                              : 320 MiB (3%)
  112. Title                                    : 京译国配 (八一内参)
  113. Language                                 : Chinese
  114. Service kind                             : Complete Main
  115. Default                                  : No
  116. Forced                                   : No
  117. Audio #5
  118. ID                                       : 6
  119. Format                                   : AC-3
  120. Format/Info                              : Audio Coding 3
  121. Commercial name                          : Dolby Digital
  122. Codec ID                                 : A_AC3
  123. Duration                                 : 3 h 53 min
  124. Bit rate mode                            : Constant
  125. Bit rate                                 : 192 kb/s
  126. Channel(s)                               : 2 channels
  127. Channel layout                           : L R
  128. Sampling rate                            : 48.0 kHz
  129. Frame rate                               : 31.250 FPS (1536 SPF)
  130. Compression mode                         : Lossy
  131. Stream size                              : 320 MiB (3%)
  132. Title                                    : CCTV-1国配 (徐涛、唐烨)
  133. Language                                 : Chinese
  134. Service kind                             : Complete Main
  135. Default                                  : No
  136. Forced                                   : No
  137. Audio #6
  138. ID                                       : 7
  139. Format                                   : AC-3
  140. Format/Info                              : Audio Coding 3
  141. Commercial name                          : Dolby Digital
  142. Codec ID                                 : A_AC3
  143. Duration                                 : 3 h 53 min
  144. Bit rate mode                            : Constant
  145. Bit rate                                 : 192 kb/s
  146. Channel(s)                               : 2 channels
  147. Channel layout                           : L R
  148. Sampling rate                            : 48.0 kHz
  149. Frame rate                               : 31.250 FPS (1536 SPF)
  150. Compression mode                         : Lossy
  151. Stream size                              : 320 MiB (3%)
  152. Title                                    : CCTV-6国配 (李智伟、王雪纯、张云明)
  153. Language                                 : Chinese
  154. Service kind                             : Complete Main
  155. Default                                  : No
  156. Forced                                   : No
  157. Audio #7
  158. ID                                       : 8
  159. Format                                   : AC-3
  160. Format/Info                              : Audio Coding 3
  161. Commercial name                          : Dolby Digital
  162. Codec ID                                 : A_AC3
  163. Duration                                 : 3 h 48 min
  164. Bit rate mode                            : Constant
  165. Bit rate                                 : 192 kb/s
  166. Channel(s)                               : 2 channels
  167. Channel layout                           : L R
  168. Sampling rate                            : 48.0 kHz
  169. Frame rate                               : 31.250 FPS (1536 SPF)
  170. Compression mode                         : Lossy
  171. Stream size                              : 314 MiB (3%)
  172. Title                                    : 先科vcd第一版国配 (郑建初配女主角)
  173. Language                                 : Chinese
  174. Service kind                             : Complete Main
  175. Default                                  : No
  176. Forced                                   : No
  177. Audio #8
  178. ID                                       : 9
  179. Format                                   : AC-3
  180. Format/Info                              : Audio Coding 3
  181. Commercial name                          : Dolby Digital
  182. Codec ID                                 : A_AC3
  183. Duration                                 : 3 h 53 min
  184. Bit rate mode                            : Constant
  185. Bit rate                                 : 192 kb/s
  186. Channel(s)                               : 2 channels
  187. Channel layout                           : L R
  188. Sampling rate                            : 48.0 kHz
  189. Frame rate                               : 31.250 FPS (1536 SPF)
  190. Compression mode                         : Lossy
  191. Stream size                              : 320 MiB (3%)
  192. Title                                    : 先科vcd第二版国配 (郑建初配女主角母亲)
  193. Language                                 : Chinese
  194. Service kind                             : Complete Main
  195. Default                                  : No
  196. Forced                                   : No
  197. Audio #9
  198. ID                                       : 10
  199. Format                                   : AC-3
  200. Format/Info                              : Audio Coding 3
  201. Commercial name                          : Dolby Digital
  202. Codec ID                                 : A_AC3
  203. Duration                                 : 3 h 53 min
  204. Bit rate mode                            : Constant
  205. Bit rate                                 : 192 kb/s
  206. Channel(s)                               : 2 channels
  207. Channel layout                           : L R
  208. Sampling rate                            : 48.0 kHz
  209. Frame rate                               : 31.250 FPS (1536 SPF)
  210. Compression mode                         : Lossy
  211. Stream size                              : 320 MiB (3%)
  212. Title                                    : 厦门音像vcd版国配 (张琳、韦宝宝)
  213. Language                                 : Chinese
  214. Service kind                             : Complete Main
  215. Default                                  : No
  216. Forced                                   : No
  217. Text #1
  218. ID                                       : 11
  219. Format                                   : PGS
  220. Muxing mode                              : zlib
  221. Codec ID                                 : S_HDMV/PGS
  222. Codec ID/Info                            : Picture based subtitle format used on BDs/HD-DVDs
  223. Duration                                 : 3 h 46 min
  224. Bit rate                                 : 40.3 kb/s
  225. Count of elements                        : 6292
  226. Stream size                              : 65.2 MiB (1%)
  227. Title                                    : 英文
  228. Language                                 : English
  229. Default                                  : Yes
  230. Forced                                   : No
  231. Text #2
  232. ID                                       : 12
  233. Format                                   : PGS
  234. Muxing mode                              : zlib
  235. Codec ID                                 : S_HDMV/PGS
  236. Codec ID/Info                            : Picture based subtitle format used on BDs/HD-DVDs
  237. Duration                                 : 3 h 45 min
  238. Bit rate                                 : 25.7 kb/s
  239. Count of elements                        : 7100
  240. Stream size                              : 41.5 MiB (0%)
  241. Title                                    : 简体中文
  242. Language                                 : Chinese
  243. Default                                  : No
  244. Forced                                   : No
  245. Text #3
  246. ID                                       : 13
  247. Format                                   : PGS
  248. Muxing mode                              : zlib
  249. Codec ID                                 : S_HDMV/PGS
  250. Codec ID/Info                            : Picture based subtitle format used on BDs/HD-DVDs
  251. Duration                                 : 3 h 45 min
  252. Bit rate                                 : 26.1 kb/s
  253. Count of elements                        : 7100
  254. Stream size                              : 42.1 MiB (0%)
  255. Title                                    : 繁体中文
  256. Language                                 : Chinese
  257. Default                                  : No
  258. Forced                                   : No
  259. Text #4
  260. ID                                       : 14
  261. Format                                   : PGS
  262. Muxing mode                              : zlib
  263. Codec ID                                 : S_HDMV/PGS
  264. Codec ID/Info                            : Picture based subtitle format used on BDs/HD-DVDs
  265. Duration                                 : 3 h 53 min
  266. Bit rate                                 : 40.7 kb/s
  267. Count of elements                        : 6880
  268. Stream size                              : 67.8 MiB (1%)
  269. Title                                    : 简体中文
  270. Language                                 : Chinese
  271. Default                                  : No
  272. Forced                                   : No
  273. Text #5
  274. ID                                       : 15
  275. Format                                   : PGS
  276. Muxing mode                              : zlib
  277. Codec ID                                 : S_HDMV/PGS
  278. Codec ID/Info                            : Picture based subtitle format used on BDs/HD-DVDs
  279. Duration                                 : 3 h 53 min
  280. Bit rate                                 : 41.2 kb/s
  281. Count of elements                        : 6880
  282. Stream size                              : 68.6 MiB (1%)
  283. Title                                    : 繁体中文
  284. Language                                 : Chinese
  285. Default                                  : No
  286. Forced                                   : No
  287. Text #6
  288. ID                                       : 16
  289. Format                                   : PGS
  290. Muxing mode                              : zlib
  291. Codec ID                                 : S_HDMV/PGS
  292. Codec ID/Info                            : Picture based subtitle format used on BDs/HD-DVDs
  293. Duration                                 : 3 h 48 min
  294. Bit rate                                 : 31.6 kb/s
  295. Count of elements                        : 6876
  296. Stream size                              : 51.8 MiB (0%)
  297. Title                                    : 简体中文
  298. Language                                 : Chinese
  299. Default                                  : No
  300. Forced                                   : No
  301. Text #7
  302. ID                                       : 17
  303. Format                                   : PGS
  304. Muxing mode                              : zlib
  305. Codec ID                                 : S_HDMV/PGS
  306. Codec ID/Info                            : Picture based subtitle format used on BDs/HD-DVDs
  307. Duration                                 : 3 h 48 min
  308. Bit rate                                 : 32.8 kb/s
  309. Count of elements                        : 7120
  310. Stream size                              : 53.6 MiB (0%)
  311. Title                                    : 简体中文
  312. Language                                 : Chinese
  313. Default                                  : No
  314. Forced                                   : No
  315. Menu
  316. 00:00:00.000                             : en:Chapter 01
  317. 00:02:35.154                             : en:Chapter 02
  318. 00:02:35.779                             : en:Chapter 03
  319. 00:06:46.905                             : en:Chapter 04
  320. 00:09:38.994                             : en:Chapter 05
  321. 00:15:25.422                             : en:Chapter 06
  322. 00:17:53.653                             : en:Chapter 07
  323. 00:21:42.172                             : en:Chapter 08
  324. 00:25:46.875                             : en:Chapter 09 / en:Chapter 10
  325. 00:28:35.000                             : en:Chapter 11 / en:Chapter 12
  326. 00:28:35.001                             : en:Chapter 13
  327. 00:32:35.036                             : en:Chapter 14
  328. 00:35:39.344                             : en:Chapter 15
  329. 00:38:09.661                             : en:Chapter 16
  330. 00:42:22.247                             : en:Chapter 17
  331. 00:46:02.550                             : en:Chapter 18
  332. 00:48:47.090                             : en:Chapter 19
  333. 00:52:02.158                             : en:Chapter 20
  334. 00:55:26.404                             : en:Chapter 21
  335. 00:58:42.768                             : en:Chapter 22
  336. 01:01:42.447                             : en:Chapter 23
  337. 01:04:45.796                             : en:Chapter 24
  338. 01:10:41.861                             : en:Chapter 25
  339. 01:14:50.443                             : en:Chapter 26
  340. 01:14:50.484                             : en:Chapter 27
  341. 01:17:06.912                             : en:Chapter 28
  342. 01:18:53.978                             : en:Chapter 29
  343. 01:23:06.728                             : en:Chapter 30
  344. 01:27:39.711                             : en:Chapter 31
  345. 01:31:47.291                             : en:Chapter 32
  346. 01:34:58.234                             : en:Chapter 33
  347. 01:38:03.377                             : en:Chapter 34
  348. 01:41:58.236                             : en:Chapter 35
  349. 01:41:59.112                             : en:Chapter 36
  350. 01:44:12.952                             : en:Chapter 37
  351. 01:48:12.484                             : en:Chapter 38
  352. 01:49:42.950                             : en:Chapter 39
  353. 01:52:41.502                             : en:Chapter 40
  354. 01:57:31.417                             : en:Chapter 41
  355. 02:01:43.170                             : en:Chapter 42
  356. 02:03:47.336                             : en:Chapter 43
  357. 02:09:19.917                             : en:Chapter 44
  358. 02:11:21.206                             : en:Chapter 45
  359. 02:14:24.388                             : en:Chapter 46
  360. 02:19:39.870                             : en:Chapter 47
  361. 02:25:18.501                             : en:Chapter 48
  362. 02:29:54.402                             : en:Chapter 49
  363. 02:32:43.066                             : en:Chapter 50 / en:Chapter 51 / en:Chapter 52
  364. 02:37:26.683                             : en:Chapter 53 / en:Chapter 54 / en:Chapter 55
  365. 02:42:47.466                             : en:Chapter 56
  366. 02:46:00.531                             : en:Chapter 57
  367. 02:53:12.215                             : en:Chapter 58
  368. 02:57:12.745                             : en:Chapter 59
  369. 02:57:13.245                             : en:Chapter 60
  370. 03:00:25.477                             : en:Chapter 61 / en:Chapter 62 / en:Chapter 63
  371. 03:05:08.843                             : en:Chapter 64 / en:Chapter 65 / en:Chapter 66
  372. 03:08:46.940                             : en:Chapter 67
  373. 03:12:17.691                             : en:Chapter 68
  374. 03:14:08.637                             : en:Chapter 69
  375. 03:18:52.879                             : en:Chapter 70
  376. 03:18:53.004                             : en:Chapter 71
  377. 03:24:14.111                             : en:Chapter 72
  378. 03:24:14.112                             : en:Chapter 73
  379. 03:24:14.113                             : en:Chapter 74
  380. 03:29:55.582                             : en:Chapter 75
  381. 03:32:26.397                             : en:Chapter 76 / en:Chapter 77
  382. 03:35:29.707                             : en:Chapter 78
  383. 03:39:29.530                             : en:Chapter 79
  384. 03:41:43.580                             : en:Chapter 80
  385. 03:46:43.379                             : en:Chapter 81
  386. 03:48:56.931                             : en:Chapter 82
复制代码




TAGS 剧情 爱情 历史 战争 /

磁力链:
  • magnet:?xt=urn:btih:A827AB7779B5B349AC75C7CBA0296C28A0481775
上传的附件:
BT9527电影天堂 1、BT9527电影天堂提供的BT文件均来源于互联网抓取,只供网友学习交流、技术提升使用。
2、我们遵守BitTorrent点对点协议原则,任何版权问题请联系原资源发布商,我们不处理任何版权纠纷,谢谢!如有争议请联系邮箱:BT9527#hotmail.com(#换成@)
3、如果您发现某页面或地址有错误,请联系站长邮箱BT9527#hotmail.com(#换成@),我们会尽快处理。您的热心是对BT9527电影天堂最大的支持。
4、本站建议去正规影院观看电影以支持电影行业发展。
最新回复 (0)

你可以在 登录 or 注册 后,对此帖发表评论!

返回
发新帖