东京物语[国日多音轨/中英字幕].Tokyo.Story.1953.BluRay.1080p.x265.10bit.2Audio-MiniHD 5.62GB

版主小s 1月前 426



◎译  名 东京物语 / 东京故事 / 东京纪行 / Tokyo Story
◎片  名 東京物語
◎年  代 1953
◎产  地 日本
◎类  别 剧情 / 家庭
◎语  言 日语
◎上映日期 1953-11-03(日本)
◎IMDb链接 https://www.imdb.com/title/tt0046438/
◎豆瓣评分 9.1/10 (125641人评价)
◎豆瓣链接 https://movie.douban.com/subject/1291568/
◎片  长 136 分钟
◎导  演 小津安二郎 Yasujir? Ozu (id:1036727)
◎编  剧 野田高梧 K?go Noda (id:1042948)
       小津安二郎 Yasujir? Ozu (id:1036727)
◎演  员 笠智众 Chish? Ry? (id:1143078)
       原节子 Setsuko Hara (id:1018531)
       杉村春子 Haruko Sugimura (id:1016991)
       东山千荣子 Chieko Higashiyama (id:1029130)
       山村聪 S? Yamamura (id:1032895)
       香川京子 Ky?ko Kagawa (id:1037632)
       三谷幸子 Sachiko Mitani (id:1338911)
       高桥丰子 Toyo Takahashi (id:1150234)
       安部彻 T?ru Abe (id:1054890)
       樱睦子 Mutsuko Sakura (id:1008702)
       长冈辉子 Teruko Nagaoka (id:1015946)
       十朱久雄 Hisao Toake (id:1052509)
       大坂志郎 Shir? Osaka (id:1008588)
       中村伸郎 Nobuo Nakamura (id:1051581)
       东野英治郎 Eijir? T?no (id:1159772)
       厚田雄春 Y?haru Atsuta (id:1277547)
       滨田辰雄 Tatsuo Hamada (id:1285893)
       今村昌平 Shohei Imamura (id:1050213)

◎简  介
  儿女们都大了,各自成家。父亲周吉(笠智众饰)和老伴(东山千荣子饰)要去东京看望他们,老两口带着愉快心情上路。可另一边,还没等他们到大儿子家,孙子就因为爷爷奶奶到来腾地方哭闹不停。老人开始觉得尴尬,大儿子幸一(山村聪饰)在东京当医生,二女儿繁(杉村春子饰)在东京开美容店,二儿媳纪子(原节子饰),小女儿京子(香川京子饰)外,大阪还有三子敬三。                                    
                                东京让老人陌生,在儿女家也好不到哪去。大儿子工作繁忙,没时间带他们出去玩。搬到女儿家,依旧每日困守且有矛盾。老两口渐渐也明白儿女们的处境,他们在东京的老友也过得不好。只有守寡的儿媳纪子对老人很是孝顺。之后老人踏上回家的路,前后不过十天……

  1. ##### MediaInfo ######
  2. General
  3. Unique ID                                : 182500001722067354474613684636488941082 (0x894C38C8FB1C47A0B47FF3F86571BE1A)
  4. Complete name                            : Tokyo.Story.1953.BluRay.1080p.x265.10bit.2Audio-MiniHD.mkv
  5. Format                                   : Matroska
  6. Format version                           : Version 4
  7. File size                                : 5.61 GiB
  8. Duration                                 : 2 h 16 min
  9. Overall bit rate                         : 5 877 kb/s
  10. Encoded date                             : UTC 2017-09-01 10:05:54
  11. Writing application                      : mkvmerge v11.0.0 ('Alive') 64bit
  12. Writing library                          : libebml v1.3.4 + libmatroska v1.4.5
  13. Video
  14. ID                                       : 1
  15. Format                                   : HEVC
  16. Format/Info                              : High Efficiency Video Coding
  17. Codec ID                                 : V_MPEGH/ISO/HEVC
  18. Duration                                 : 2 h 16 min
  19. Bit rate                                 : 5 291 kb/s
  20. Width                                    : 1 438 pixels
  21. Height                                   : 1 080 pixels
  22. Display aspect ratio                     : 4:3
  23. Frame rate mode                          : Constant
  24. Frame rate                               : 23.976 (24000/1001/53354) FPS
  25. Bits/(Pixel*Frame)                       : 0.142
  26. Stream size                              : 5.05 GiB (90%)
  27. Default                                  : Yes
  28. Forced                                   : No
  29. Audio #1
  30. ID                                       : 2
  31. Format                                   : AC-3
  32. Format/Info                              : Audio Coding 3
  33. Commercial name                          : Dolby Digital
  34. Codec ID                                 : A_AC3
  35. Duration                                 : 2 h 16 min
  36. Bit rate mode                            : Constant
  37. Bit rate                                 : 320 kb/s
  38. Channel(s)                               : 2 channels
  39. Channel layout                           : L R
  40. Sampling rate                            : 48.0 kHz
  41. Frame rate                               : 31.250 FPS (1536 SPF)
  42. Compression mode                         : Lossy
  43. Stream size                              : 313 MiB (5%)
  44. Language                                 : Japanese
  45. Service kind                             : Complete Main
  46. Default                                  : Yes
  47. Forced                                   : No
  48. Audio #2
  49. ID                                       : 3
  50. Format                                   : AC-3
  51. Format/Info                              : Audio Coding 3
  52. Commercial name                          : Dolby Digital
  53. Codec ID                                 : A_AC3
  54. Duration                                 : 2 h 16 min
  55. Bit rate mode                            : Constant
  56. Bit rate                                 : 224 kb/s
  57. Channel(s)                               : 2 channels
  58. Channel layout                           : L R
  59. Sampling rate                            : 48.0 kHz
  60. Frame rate                               : 31.250 FPS (1536 SPF)
  61. Compression mode                         : Lossy
  62. Delay relative to video                  : 24 ms
  63. Stream size                              : 218 MiB (4%)
  64. Language                                 : Chinese
  65. Service kind                             : Complete Main
  66. Default                                  : No
  67. Forced                                   : No
  68. Text #1
  69. ID                                       : 4
  70. Format                                   : PGS
  71. Muxing mode                              : zlib
  72. Codec ID                                 : S_HDMV/PGS
  73. Codec ID/Info                            : Picture based subtitle format used on BDs/HD-DVDs
  74. Duration                                 : 2 h 11 min
  75. Bit rate                                 : 11.5 kb/s
  76. Count of elements                        : 2780
  77. Stream size                              : 10.8 MiB (0%)
  78. Language                                 : Japanese
  79. Default                                  : Yes
  80. Forced                                   : No
  81. Text #2
  82. ID                                       : 5
  83. Format                                   : PGS
  84. Muxing mode                              : zlib
  85. Codec ID                                 : S_HDMV/PGS
  86. Codec ID/Info                            : Picture based subtitle format used on BDs/HD-DVDs
  87. Duration                                 : 2 h 15 min
  88. Bit rate                                 : 5 920 b/s
  89. Count of elements                        : 2462
  90. Stream size                              : 5.75 MiB (0%)
  91. Language                                 : English
  92. Default                                  : No
  93. Forced                                   : No
  94. Text #3
  95. ID                                       : 6
  96. Format                                   : PGS
  97. Muxing mode                              : zlib
  98. Codec ID                                 : S_HDMV/PGS
  99. Codec ID/Info                            : Picture based subtitle format used on BDs/HD-DVDs
  100. Duration                                 : 2 h 15 min
  101. Bit rate                                 : 10.1 kb/s
  102. Count of elements                        : 2560
  103. Stream size                              : 9.80 MiB (0%)
  104. Language                                 : Chinese
  105. Default                                  : No
  106. Forced                                   : No
  107. Text #4
  108. ID                                       : 7
  109. Format                                   : PGS
  110. Muxing mode                              : zlib
  111. Codec ID                                 : S_HDMV/PGS
  112. Codec ID/Info                            : Picture based subtitle format used on BDs/HD-DVDs
  113. Duration                                 : 2 h 15 min
  114. Bit rate                                 : 13.9 kb/s
  115. Count of elements                        : 2560
  116. Stream size                              : 13.5 MiB (0%)
  117. Language                                 : Chinese
  118. Default                                  : No
  119. Forced                                   : No
  120. Menu
  121. 00:00:00.000                             : en:Chapter 01
  122. 00:06:04.155                             : en:Chapter 02
  123. 00:13:48.077                             : en:Chapter 03
  124. 00:21:59.693                             : en:Chapter 04
  125. 00:31:02.485                             : en:Chapter 05
  126. 00:36:33.274                             : en:Chapter 06
  127. 00:45:16.255                             : en:Chapter 07
  128. 00:55:56.728                             : en:Chapter 08
  129. 01:04:56.642                             : en:Chapter 09
  130. 01:13:03.045                             : en:Chapter 10
  131. 01:25:37.757                             : en:Chapter 11
  132. 01:32:17.365                             : en:Chapter 12
  133. 01:39:53.904                             : en:Chapter 13
  134. 01:52:33.246                             : en:Chapter 14
  135. 01:56:29.941                             : en:Chapter 15
  136. 02:02:23.169                             : en:Chapter 16
  137. 02:16:45.405                             : en:Chapter 17
复制代码




TAGS 剧情 家庭 /

磁力链:
  • magnet:?xt=urn:btih:64DAFA74AE3CDCA3AE5A8EA1DE83842201213D16
上传的附件:
BT9527电影天堂 1、BT9527电影天堂提供的BT文件均来源于互联网抓取,只供网友学习交流、技术提升使用。
2、我们遵守BitTorrent点对点协议原则,任何版权问题请联系原资源发布商,我们不处理任何版权纠纷,谢谢!如有争议请联系邮箱:BT9527#hotmail.com(#换成@)
3、如果您发现某页面或地址有错误,请联系站长邮箱BT9527#hotmail.com(#换成@),我们会尽快处理。您的热心是对BT9527电影天堂最大的支持。
4、本站建议去正规影院观看电影以支持电影行业发展。
最新回复 (0)

你可以在 登录 or 注册 后,对此帖发表评论!

返回
发新帖