世界[国语音轨/中英字幕].The.World.2004.BluRay.1080p.x265.10bit-MiniHD 6.18GB.贾樟柯

版主小s 1月前 172



◎译  名 世界 / The World
◎年  代 2004
◎产  地 中国大陆 / 日本 / 法国
◎类  别 剧情
◎语  言 汉语普通话 / 晋语 / 俄语 / 英语
◎上映日期 2005-04-15(中国大陆) / 2004-09-04(威尼斯电影节)
◎IMDb链接 https://www.imdb.com/title/tt0423176/
◎豆瓣评分 7.5/10 (24799人评价)
◎豆瓣链接 https://movie.douban.com/subject/1309087/
◎片  长 143分钟
◎导  演 贾樟柯 Zhangke Jia (id:1274261)
◎编  剧 贾樟柯 Zhangke Jia (id:1274261)
◎演  员 赵涛 Tao Zhao (id:1005985)
       成泰燊 Taishen Cheng (id:1196361)
       黄依群 Yiqun Huang (id:1352219)
       王宏伟 Hongwei Wang (id:1275506)
       梁景东 Jingdong Liang (id:1349017)
       王小帅 Xiaoshuai Wang (id:1018708)
       韩三明 Sanming Han (id:1322999)
       蒋中炜 Zhongwei Jiang (id:1336765)
       刘小东 Xiaodong Liu (id:1275221)
       市山尚三 Shozo Ichiyama (id:1329078)
       余力为 Nelson Yu Lik-wai (id:1166303)
       周强 Chow Keung (id:1336386)
       林强 Giong Lim (id:1020087)
       左小祖咒 Zuoxiao Zuzhou (id:1326242)
       余力为 Nelson Yu Lik-wai (id:1166303)
       孔劲蕾 Jinglei Kong (id:1325102)
       吴黎中 Lizhong Wu (id:1445324)
       韩杰 Jie Han (id:1316056)
       任仲伦 Zhonglun Ren (id:1333045)
       卢琳 Celine Lu (id:1391205)

◎简  介
  身为北京世界公园民俗村的一名舞蹈演员,赵小桃(赵涛)对身边微缩的世界早已厌倦,渴望有天同也在民俗村做保安队长的男友成太生(成泰燊)一起坐飞机去看看外面真实的世界。前任男友的到访,令赵小桃想起她同成太生刻骨铭心的初遇以及目前两人过的平庸日子,明白昔日的理想早被粉碎,而刚结识的一见如故的俄罗斯姑娘安娜的突然离去,加深了她对现实生活意义的怀疑,认识到她和成太生对彼此的忠贞,是生活里所剩的唯有美好。                                    
                                然而人心是最能琢磨的,成太生悄无声息地把心给了另一个即将去巴黎的女人,但他显然没有领会民俗村以外的现实世界里流行的情感游戏规则,只能黯然回归自己的卑微身份。

◎获奖情况 (共2项)
  第61届威尼斯电影节 (2004)
  主竞赛单元 金狮奖 (提名)
   └──贾樟柯 (id:1274261)

  第41届台北金马影展 (2004)
  金马奖 最佳原创配乐(提名)
   └──林强 (id:1020087)

  1. ##### MediaInfo ######
  2. General
  3. Unique ID                                : 183461734576847399328015641869426376036 (0x8A0571E02FF59BFB9651DA1E29483D64)
  4. Complete name                            : The.World.2004.BluRay.1080p.x265.10bit-MiniHD.mkv
  5. Format                                   : Matroska
  6. Format version                           : Version 4
  7. File size                                : 6.17 GiB
  8. Duration                                 : 2 h 19 min
  9. Overall bit rate                         : 6 343 kb/s
  10. Encoded date                             : UTC 2017-07-19 04:16:04
  11. Writing application                      : mkvmerge v11.0.0 ('Alive') 64bit
  12. Writing library                          : libebml v1.3.4 + libmatroska v1.4.5
  13. Video
  14. ID                                       : 1
  15. Format                                   : HEVC
  16. Format/Info                              : High Efficiency Video Coding
  17. Codec ID                                 : V_MPEGH/ISO/HEVC
  18. Duration                                 : 2 h 19 min
  19. Bit rate                                 : 5 577 kb/s
  20. Width                                    : 1 920 pixels
  21. Height                                   : 820 pixels
  22. Display aspect ratio                     : 2.35:1
  23. Frame rate mode                          : Constant
  24. Frame rate                               : 24.000 FPS
  25. Bits/(Pixel*Frame)                       : 0.148
  26. Stream size                              : 5.43 GiB (88%)
  27. Default                                  : Yes
  28. Forced                                   : No
  29. Audio
  30. ID                                       : 2
  31. Format                                   : AC-3
  32. Format/Info                              : Audio Coding 3
  33. Commercial name                          : Dolby Digital
  34. Codec ID                                 : A_AC3
  35. Duration                                 : 2 h 19 min
  36. Bit rate mode                            : Constant
  37. Bit rate                                 : 640 kb/s
  38. Channel(s)                               : 2 channels
  39. Channel layout                           : L R
  40. Sampling rate                            : 48.0 kHz
  41. Frame rate                               : 31.250 FPS (1536 SPF)
  42. Compression mode                         : Lossy
  43. Stream size                              : 638 MiB (10%)
  44. Language                                 : Chinese
  45. Service kind                             : Complete Main
  46. Default                                  : Yes
  47. Forced                                   : No
  48. Text #1
  49. ID                                       : 3
  50. Format                                   : PGS
  51. Muxing mode                              : zlib
  52. Codec ID                                 : S_HDMV/PGS
  53. Codec ID/Info                            : Picture based subtitle format used on BDs/HD-DVDs
  54. Language                                 : Chinese
  55. Default                                  : Yes
  56. Forced                                   : No
  57. Text #2
  58. ID                                       : 4
  59. Format                                   : PGS
  60. Muxing mode                              : zlib
  61. Codec ID                                 : S_HDMV/PGS
  62. Codec ID/Info                            : Picture based subtitle format used on BDs/HD-DVDs
  63. Language                                 : Chinese
  64. Default                                  : No
  65. Forced                                   : No
  66. Text #3
  67. ID                                       : 5
  68. Format                                   : PGS
  69. Muxing mode                              : zlib
  70. Codec ID                                 : S_HDMV/PGS
  71. Codec ID/Info                            : Picture based subtitle format used on BDs/HD-DVDs
  72. Language                                 : Chinese
  73. Default                                  : No
  74. Forced                                   : No
  75. Text #4
  76. ID                                       : 6
  77. Format                                   : PGS
  78. Muxing mode                              : zlib
  79. Codec ID                                 : S_HDMV/PGS
  80. Codec ID/Info                            : Picture based subtitle format used on BDs/HD-DVDs
  81. Language                                 : Chinese
  82. Default                                  : No
  83. Forced                                   : No
  84. Text #5
  85. ID                                       : 7
  86. Format                                   : PGS
  87. Muxing mode                              : zlib
  88. Codec ID                                 : S_HDMV/PGS
  89. Codec ID/Info                            : Picture based subtitle format used on BDs/HD-DVDs
  90. Language                                 : English
  91. Default                                  : No
  92. Forced                                   : No
  93. Menu
  94. 00:00:00.000                             : en:Chapter 01
  95. 00:07:20.666                             : en:Chapter 02
  96. 00:20:36.625                             : en:Chapter 03
  97. 00:26:06.541                             : en:Chapter 04
  98. 00:31:51.958                             : en:Chapter 05
  99. 00:38:50.958                             : en:Chapter 06
  100. 00:44:28.291                             : en:Chapter 07
  101. 00:49:38.666                             : en:Chapter 08
  102. 00:54:42.166                             : en:Chapter 09
  103. 01:03:30.083                             : en:Chapter 10
  104. 01:15:57.458                             : en:Chapter 11
  105. 01:22:05.541                             : en:Chapter 12
  106. 01:28:53.958                             : en:Chapter 13
  107. 01:39:13.833                             : en:Chapter 14
  108. 01:48:30.291                             : en:Chapter 15
  109. 01:57:11.583                             : en:Chapter 16
  110. 02:09:06.708                             : en:Chapter 17
  111. 02:16:16.166                             : en:Chapter 18
复制代码




TAGS 剧情

磁力链:
  • magnet:?xt=urn:btih:92914DCAF5FC378D1F3B645C781EA5BEB9AB72B4
上传的附件:
BT9527电影天堂 1、BT9527电影天堂提供的BT文件均来源于互联网抓取,只供网友学习交流、技术提升使用。
2、我们遵守BitTorrent点对点协议原则,任何版权问题请联系原资源发布商,我们不处理任何版权纠纷,谢谢!如有争议请联系邮箱:BT9527#hotmail.com(#换成@)
3、如果您发现某页面或地址有错误,请联系站长邮箱BT9527#hotmail.com(#换成@),我们会尽快处理。您的热心是对BT9527电影天堂最大的支持。
4、本站建议去正规影院观看电影以支持电影行业发展。
最新回复 (0)

你可以在 登录 or 注册 后,对此帖发表评论!

返回