与狼共舞[国英多音轨/中英字幕].Dances.With.Wolves.1990.BluRay.1080p.x265.10bit.3Audio-MiniHD 12.36GB

版主小s 29天前 150



◎译  名 与狼共舞
◎片  名 Dances with Wolves
◎年  代 1990
◎产  地 美国 / 英国
◎类  别 剧情 / 西部 / 冒险
◎语  言 英语 / 波尼语 / 拉科塔语
◎上映日期 1990-11-21(美国)
◎IMDb链接 https://www.imdb.com/title/tt0099348/
◎豆瓣评分 8.9/10 (77287人评价)
◎豆瓣链接 https://movie.douban.com/subject/1293764/
◎片  长 181分钟
◎导  演 凯文·科斯特纳 Kevin Costner (id:1016671)
◎编  剧 迈克尔·布雷克 Michael Blake (id:1009946)
◎演  员 凯文·科斯特纳 Kevin Costner (id:1016671)
       玛丽·麦克唐纳 Mary McDonnell (id:1044889)
       格雷厄姆·格林 Graham Greene (id:1056126)
       罗德尼·格兰特 Rodney A. Grant (id:1032204)
       弗洛伊德·怀斯特曼 Floyd 'Red Crow' Westerman (id:1023029)
       坦图·卡丁诺 Tantoo Cardinal (id:1010753)
       罗伯特·帕斯托莱利 Robert Pastorelli (id:1133698)
       查尔斯·罗基特 Charles Rocket (id:1049909)
       莫里·柴金 Maury Chaykin (id:1025292)
       吉姆·赫尔曼 Jimmy Herman (id:1416040)
       Nathan Lee Chasing His Horse Nathan Lee Chasing His Horse (id:1106664)
       迈克尔·斯皮尔斯 Michael Spears (id:1014183)
       托尼·皮尔斯 Tony Pierce (id:1346378)
       Doris Leader Charge Doris Leader Charge (id:1072678)
       汤姆·埃沃雷特 Tom Everett (id:1083989)
       拉里·约书亚 Larry Joshua (id:1108232)
       柯克·鲍兹 Kirk Baltz (id:1050060)
       Donald Hotton Donald Hotton (id:1099147)
       Annie Costner Annie Costner (id:1056090)
       史蒂夫·里维斯 Steve Reevis (id:1022924)
       韦斯·斯塔迪 Wes Studi (id:1036366)
       吉姆·威尔逊 Jim Wilson (id:1301047)
       William H. Burton William H. Burton (id:1279712)
       吉姆·威尔逊 Jim Wilson (id:1301047)
       Derek Kavanagh Derek Kavanagh (id:1280325)
       曾励珍 Catherine Tsang (id:1354134)
       邦妮·阿诺德 Bonnie Arnold (id:1277424)
       约翰·巴里 John Barry (id:1041275)
       迪安·塞姆勒 Dean Semler (id:1276583)
       尼尔·特拉维斯 Neil Travis (id:1299480)
       杰弗里·比克罗夫特 Jeffrey Beecroft (id:1278211)
       William Ladd Skinner William Ladd Skinner (id:1297738)
       丽莎·迪恩 Lisa Dean (id:1282110)
       艾尔莎·赞帕雷利 Elsa Zamparelli (id:1039234)
       Francisco X. Pérez Francisco X. Pérez (id:1280155)
       Tammy Ashmore Tammy Ashmore (id:1277494)
       David Atherton David Atherton (id:1277533)
       Joani Yarbrough Joani Yarbrough (id:1301431)
       Elle Elliott Elle Elliott (id:1283118)
       Beth Miller Beth Miller (id:1292062)
       史蒂芬·P·邓恩 Stephen P. Dunn (id:1282819)
       Doug Metzger Doug Metzger (id:1276309)
       马修·尤里奇 Matthew Yuricich (id:1301579)
       罗科·焦弗雷 Rocco Gioffre (id:1284912)

◎简  介
  邓巴中尉(凯文?科斯特纳 Kevin Costner 饰)在南北战争中立了大功,政府为了褒奖他,给了他任意选择驻地的特权。邓巴渴望着一种全新的生活,于是选择了遥远偏僻的西部哨所塞克威克。这里住着大量的印第安苏族人。                                    
                                一开始苏族人把他的到来有着抗拒,当邓巴主动接近和了解他们的生活,并搭救了一个从小在苏族长大的白人少女后,族人和他之间的关系开始回暖。他得到了一个印第安名字:与狼共舞。邓巴的骑术让族人惊叹,他的善良被大家称赞,和白人少女也日久生情。一次对抗外族入侵的战争中,邓巴更是被封为了苏族人的民族英雄。                                    
                                然而马背文化的没落已成必然,白人士兵来到这片土地,驱赶苏族人,捕捉“叛徒”邓巴,这片朴实的土地慢慢改变了容颜……

◎获奖情况 (共15项)
  第63届奥斯卡金像奖 (1991)
  最佳影片
  最佳导演
   └──凯文·科斯特纳 (id:1016671)
  最佳男主角(提名)
   └──凯文·科斯特纳 (id:1016671)
  最佳男配角(提名)
   └──格雷厄姆·格林 (id:1056126)
  最佳女配角(提名)
   └──玛丽·麦克唐纳 (id:1044889)
  最佳改编剧本
   └──迈克尔·布雷克 (id:1009946)
  最佳摄影
   └──迪安·塞姆勒 (id:1276583)
  最佳剪辑
   └──尼尔·特拉维斯 (id:1299480)
  最佳音响
  最佳艺术指导(提名)
  最佳服装设计(提名)
   └──艾尔莎·赞帕雷利 (id:1039234)
  最佳原创配乐
   └──约翰·巴里 (id:1041275)

  第41届柏林国际电影节 (1991)
  金熊奖 最佳影片(提名)
   └──凯文·科斯特纳 (id:1016671)
  银熊奖 杰出成就
   └──凯文·科斯特纳 (id:1016671)

  第15届日本电影学院奖 (1992)
  最佳外语片

  1. ##### MediaInfo ######
  2. General
  3. Unique ID                                : 204290792756429701473354831050197307264 (0x99B0F9BB3C072646A4B312969F2E0F80)
  4. Complete name                            : Dances.With.Wolves.1990.BluRay.1080p.x265.10bit.3Audio-MiniHD.mkv
  5. Format                                   : Matroska
  6. Format version                           : Version 4
  7. File size                                : 12.4 GiB
  8. Duration                                 : 3 h 53 min
  9. Overall bit rate                         : 7 567 kb/s
  10. Encoded date                             : UTC 2017-09-07 06:53:56
  11. Writing application                      : mkvmerge v11.0.0 ('Alive') 64bit
  12. Writing library                          : libebml v1.3.4 + libmatroska v1.4.5
  13. Video
  14. ID                                       : 1
  15. Format                                   : HEVC
  16. Format/Info                              : High Efficiency Video Coding
  17. Codec ID                                 : V_MPEGH/ISO/HEVC
  18. Duration                                 : 3 h 53 min
  19. Bit rate                                 : 6 591 kb/s
  20. Width                                    : 1 920 pixels
  21. Height                                   : 812 pixels
  22. Display aspect ratio                     : 2.35:1
  23. Frame rate mode                          : Constant
  24. Frame rate                               : 23.976 (24000/1001/53354) FPS
  25. Bits/(Pixel*Frame)                       : 0.176
  26. Stream size                              : 10.8 GiB (87%)
  27. Default                                  : Yes
  28. Forced                                   : No
  29. Audio #1
  30. ID                                       : 2
  31. Format                                   : AC-3
  32. Format/Info                              : Audio Coding 3
  33. Commercial name                          : Dolby Digital
  34. Codec ID                                 : A_AC3
  35. Duration                                 : 3 h 53 min
  36. Bit rate mode                            : Constant
  37. Bit rate                                 : 640 kb/s
  38. Channel(s)                               : 6 channels
  39. Channel layout                           : L R C LFE Ls Rs
  40. Sampling rate                            : 48.0 kHz
  41. Frame rate                               : 31.250 FPS (1536 SPF)
  42. Compression mode                         : Lossy
  43. Stream size                              : 1.05 GiB (8%)
  44. Language                                 : English
  45. Service kind                             : Complete Main
  46. Default                                  : Yes
  47. Forced                                   : No
  48. Audio #2
  49. ID                                       : 3
  50. Format                                   : AC-3
  51. Format/Info                              : Audio Coding 3
  52. Commercial name                          : Dolby Digital
  53. Codec ID                                 : A_AC3
  54. Duration                                 : 3 h 53 min
  55. Bit rate mode                            : Constant
  56. Bit rate                                 : 96.0 kb/s
  57. Channel(s)                               : 2 channels
  58. Channel layout                           : L R
  59. Sampling rate                            : 48.0 kHz
  60. Frame rate                               : 31.250 FPS (1536 SPF)
  61. Compression mode                         : Lossy
  62. Stream size                              : 161 MiB (1%)
  63. Language                                 : Chinese
  64. Service kind                             : Complete Main
  65. Default                                  : No
  66. Forced                                   : No
  67. Audio #3
  68. ID                                       : 4
  69. Format                                   : AC-3
  70. Format/Info                              : Audio Coding 3
  71. Commercial name                          : Dolby Digital
  72. Codec ID                                 : A_AC3
  73. Duration                                 : 3 h 53 min
  74. Bit rate mode                            : Constant
  75. Bit rate                                 : 192 kb/s
  76. Channel(s)                               : 2 channels
  77. Channel layout                           : L R
  78. Sampling rate                            : 48.0 kHz
  79. Frame rate                               : 31.250 FPS (1536 SPF)
  80. Compression mode                         : Lossy
  81. Stream size                              : 321 MiB (3%)
  82. Language                                 : Chinese
  83. Service kind                             : Complete Main
  84. Default                                  : No
  85. Forced                                   : No
  86. Text #1
  87. ID                                       : 5
  88. Format                                   : PGS
  89. Muxing mode                              : zlib
  90. Codec ID                                 : S_HDMV/PGS
  91. Codec ID/Info                            : Picture based subtitle format used on BDs/HD-DVDs
  92. Duration                                 : 3 h 52 min
  93. Bit rate                                 : 5 828 b/s
  94. Count of elements                        : 3274
  95. Stream size                              : 9.69 MiB (0%)
  96. Language                                 : English
  97. Default                                  : Yes
  98. Forced                                   : No
  99. Text #2
  100. ID                                       : 6
  101. Format                                   : PGS
  102. Muxing mode                              : zlib
  103. Codec ID                                 : S_HDMV/PGS
  104. Codec ID/Info                            : Picture based subtitle format used on BDs/HD-DVDs
  105. Duration                                 : 3 h 49 min
  106. Bit rate                                 : 17.1 kb/s
  107. Count of elements                        : 2667
  108. Stream size                              : 28.0 MiB (0%)
  109. Language                                 : Chinese
  110. Default                                  : No
  111. Forced                                   : No
  112. Text #3
  113. ID                                       : 7
  114. Format                                   : PGS
  115. Muxing mode                              : zlib
  116. Codec ID                                 : S_HDMV/PGS
  117. Codec ID/Info                            : Picture based subtitle format used on BDs/HD-DVDs
  118. Duration                                 : 3 h 49 min
  119. Bit rate                                 : 11.7 kb/s
  120. Count of elements                        : 2661
  121. Stream size                              : 19.2 MiB (0%)
  122. Language                                 : Chinese
  123. Default                                  : No
  124. Forced                                   : No
  125. Text #4
  126. ID                                       : 8
  127. Format                                   : PGS
  128. Muxing mode                              : zlib
  129. Codec ID                                 : S_HDMV/PGS
  130. Codec ID/Info                            : Picture based subtitle format used on BDs/HD-DVDs
  131. Duration                                 : 3 h 49 min
  132. Bit rate                                 : 11.7 kb/s
  133. Count of elements                        : 2667
  134. Stream size                              : 19.2 MiB (0%)
  135. Language                                 : Chinese
  136. Default                                  : No
  137. Forced                                   : No
  138. Menu
  139. 00:00:00.000                             : en:Chapter 01
  140. 00:05:01.050                             : en:Chapter 02
  141. 00:11:46.664                             : en:Chapter 03
  142. 00:20:19.760                             : en:Chapter 04
  143. 00:26:41.349                             : en:Chapter 05
  144. 00:36:10.168                             : en:Chapter 06
  145. 00:42:19.620                             : en:Chapter 07
  146. 00:47:22.381                             : en:Chapter 08
  147. 00:52:50.625                             : en:Chapter 09
  148. 00:56:54.035                             : en:Chapter 10
  149. 01:03:57.208                             : en:Chapter 11
  150. 01:09:49.351                             : en:Chapter 12
  151. 01:11:47.594                             : en:Chapter 13
  152. 01:19:58.960                             : en:Chapter 14
  153. 01:25:33.753                             : en:Chapter 15
  154. 01:32:32.922                             : en:Chapter 16
  155. 01:41:53.065                             : en:Chapter 17
  156. 01:53:44.234                             : en:Chapter 18
  157. 01:56:17.261                             : en:Chapter 19
  158. 02:04:32.047                             : en:Chapter 20
  159. 02:13:04.226                             : en:Chapter 21
  160. 02:18:54.117                             : en:Chapter 22
  161. 02:27:34.846                             : en:Chapter 23
  162. 02:38:09.104                             : en:Chapter 24
  163. 02:42:20.814                             : en:Chapter 25
  164. 02:53:02.330                             : en:Chapter 26
  165. 03:03:59.695                             : en:Chapter 27
  166. 03:13:15.709                             : en:Chapter 28
  167. 03:20:56.044                             : en:Chapter 29
  168. 03:27:34.066                             : en:Chapter 30
  169. 03:35:37.341                             : en:Chapter 31
  170. 03:48:25.316                             : en:Chapter 32
复制代码




TAGS 冒险 剧情 西部 /

磁力链:
  • magnet:?xt=urn:btih:2DBE04C019A422A57DAC44B62B8550F6CC5B7435
上传的附件:
BT9527电影天堂 1、BT9527电影天堂提供的BT文件均来源于互联网抓取,只供网友学习交流、技术提升使用。
2、我们遵守BitTorrent点对点协议原则,任何版权问题请联系原资源发布商,我们不处理任何版权纠纷,谢谢!如有争议请联系邮箱:BT9527#hotmail.com(#换成@)
3、如果您发现某页面或地址有错误,请联系站长邮箱BT9527#hotmail.com(#换成@),我们会尽快处理。您的热心是对BT9527电影天堂最大的支持。
4、本站建议去正规影院观看电影以支持电影行业发展。
最新回复 (0)

你可以在 登录 or 注册 后,对此帖发表评论!

返回
发新帖