一条狗的使命[国英多音轨/简繁英特效字幕].A.Dog's.Purpose.2017.BluRay.1080p.x265.10bit.2Audio-MiniHD 5.19GB

版主小s 29天前 122



◎译  名 一条狗的使命 / 为了与你相遇(台) / 再见亦是狗朋友(港)
◎片  名 A Dog's Purpose
◎年  代 2017
◎产  地 美国
◎类  别 剧情 / 喜剧 / 家庭
◎语  言 英语
◎上映日期 2017-03-03(中国大陆) / 2017-01-27(美国)
◎IMDb链接 https://www.imdb.com/title/tt1753383/
◎豆瓣评分 7.7/10 (354184人评价)
◎豆瓣链接 https://movie.douban.com/subject/6873143/
◎片  长 101分钟
◎导  演 拉斯·霍尔斯道姆 Lasse Hallstr?m (id:1018014)
◎编  剧 W·布鲁斯·卡梅伦 W. Bruce Cameron (id:1367785)
       凯瑟琳·迈克 Cathryn Michon (id:1367786)
       奥黛丽·威尔斯 Audrey Wells (id:1045444)
       玛雅·福布斯 Maya Forbes (id:1283968)
       沃利·亚历斯戴尔 Wally Wolodarsky (id:1367787)
◎演  员 乔什·加德 Josh Gad (id:1305235)
       布丽特·罗伯森 Britt Robertson (id:1000088)
       丹尼斯·奎德 Dennis Quaid (id:1002679)
       佩吉·利普顿 Peggy Lipton (id:1049592)
       K·J·阿帕 K.J. Apa (id:1368098)
       布莱斯·吉扎尔 Bryce Gheisar (id:1368154)
       朱丽叶·赖伦斯 Juliet Rylance (id:1214379)
       卢克·柯比 Luke Kirby (id:1114638)
       加布里埃尔·罗斯 Gabrielle Rose (id:1296049)
       迈克尔·博夫舍维尔 Michael Bofshever (id:1066904)
       洛根·米勒 Logan Miller (id:1004893)
       柯尔比·豪威尔-巴普蒂斯特 Kirby Howell-Baptiste (id:1368155)
       普奇·豪尔 Pooch Hall (id:1092764)
       约翰·奥提兹 John Ortiz (id:1018110)
       妮科尔·勒普拉卡 Nicole LaPlaca (id:1109402)
       彼特·科拉米斯 Peter Kelamis (id:1288324)
       卡罗琳·凯芙 Caroline Cave (id:1280322)
       简·迈克格雷格 Jane McGregor (id:1345153)
       科维西·阿梅扬 Kwesi Ameyaw (id:1056659)
       卡琳·博姆拜克 Kalyn Bomback (id:1063161)
       娜奥米·弗伦内特 Naomi Frenette (id:1358955)
       蕾切尔·波特曼 Rachel Portman (id:1037009)

◎简  介
  影片以汪星人的视角展现狗狗和人类的微妙情感,一只狗狗陪伴小主人长大成人,甚至为他追到了女朋友,后来它年迈死去又转世投胎变成其他性别和类型的汪,第二次轮回狗狗变成了警犬威风凛凛,再次转轮回,又成了陪伴一位单身女青年的小柯基犬。在经历了多次轮回之后,最终回到最初的主人身边。

◎获奖情况 (共2项)
  第4届豆瓣电影年度榜单 (2017)
  评分最高的喜剧片(提名)
  3月最受关注电影(提名)

  1. ##### MediaInfo ######
  2. General
  3. Unique ID                                : 211103014658666213817059964530595140886 (0x9ED0F633D0FA4C98A1392F2E5C831516)
  4. Complete name                            : A.Dog‘s.Purpose.2017.BluRay.1080p.x265.10bit.2Audio-MiniHD.mkv
  5. Format                                   : Matroska
  6. Format version                           : Version 4
  7. File size                                : 5.19 GiB
  8. Duration                                 : 1 h 40 min
  9. Overall bit rate                         : 7 423 kb/s
  10. Encoded date                             : UTC 2017-11-01 15:33:57
  11. Writing application                      : mkvmerge v17.0.0 ('Be Ur Friend') 64-bit
  12. Writing library                          : libebml v1.3.5 + libmatroska v1.4.8
  13. Video
  14. ID                                       : 1
  15. Format                                   : HEVC
  16. Format/Info                              : High Efficiency Video Coding
  17. Format profile                           : Main 10@L4@Main
  18. Codec ID                                 : V_MPEGH/ISO/HEVC
  19. Duration                                 : 1 h 40 min
  20. Bit rate                                 : 6 148 kb/s
  21. Width                                    : 1 920 pixels
  22. Height                                   : 804 pixels
  23. Display aspect ratio                     : 2.40:1
  24. Frame rate mode                          : Constant
  25. Frame rate                               : 23.976 (24000/1001/53354) FPS
  26. Color space                              : YUV
  27. Chroma subsampling                       : 4:2:0
  28. Bit depth                                : 10 bits
  29. Bits/(Pixel*Frame)                       : 0.166
  30. Stream size                              : 4.30 GiB (83%)
  31. Title                                    : FRDS
  32. Writing library                          : x265 2.4+2-5bc5e73760cd:[Windows][GCC 6.3.0][64 bit] 10bit
  33. Encoding settings                        : cpuid=533541173503 / frame-threads=6 / numa-pools=36 / wpp / no-pmode / no-pme / no-psnr / no-ssim / log-level=2 / input-csp=1 / input-res=1920x804 / interlace=0 / total-frames=143909 / level-idc=0 / high-tier=1 / uhd-bd=0 / ref=5 / no-allow-non-conformance / no-repeat-headers / annexb / no-aud / no-hrd / info / hash=0 / no-temporal-layers / no-open-gop / min-keyint=1 / keyint=360 / bframes=8 / b-adapt=2 / b-pyramid / bframe-bias=0 / rc-lookahead=60 / lookahead-slices=4 / NTMzNTQ=uuDQuD2mJt9fsCf / scenecut=40 / no-intra-refresh / ctu=32 / min-cu-size=8 / rect / no-amp / max-tu-size=16 / tu-inter-depth=2 / tu-intra-depth=2 / limit-tu=4 / rdoq-level=2 / dynamic-rd=0.00 / ssim-rd / signhide / no-tskip / nr-intra=0 / nr-inter=0 / no-constrained-intra / no-strong-intra-smoothing / max-merge=3 / limit-refs=1 / limit-modes / me=3 / subme=5 / merange=25 / temporal-mvp / weightp / weightb / no-analyze-src-pics / deblock=-1:-1 / no-sao / no-sao-non-deblock / rd=4 / no-early-skip / rskip / no-fast-intra / no-tskip-fast / no-cu-lossless / b-intra / rdpenalty=1 / psy-rd=0.00 / psy-rdoq=5.00 / no-rd-refine / analysis-mode=0 / no-lossless / cbqpoffs=-2 / crqpoffs=-2 / rc=crf / crf=18.0 / qcomp=0.70 / qpstep=4 / stats-write=0 / stats-read=0 / ipratio=1.30 / pbratio=1.20 / aq-mode=2 / aq-strength=0.80 / cutree / zone-count=0 / no-strict-cbr / qg-size=16 / no-rc-grain / qpmax=69 / qpmin=0 / sar=0 / overscan=0 / videoformat=5 / range=0 / colorprim=1 / transfer=2 / colormatrix=2 / chromaloc=0 / display-window=0 / max-cll=0,0 / min-luma=0 / max-luma=1023 / log2-max-poc-lsb=8 / vui-timing-info / vui-hrd-info / slices=1 / opt-qp-pps / opt-ref-list-length-pps / no-multi-pass-opt-rps / scenecut-bias=0.05 / no-opt-cu-delta-qp / no-aq-motion / no-hdr / no-hdr-opt / no-dhdr10-opt / refine-level=5 / no-limit-sao
  34. Default                                  : Yes
  35. Forced                                   : No
  36. Color range                              : Limited
  37. Color primaries                          : BT.709
  38. Audio #1
  39. ID                                       : 2
  40. Format                                   : AC-3
  41. Format/Info                              : Audio Coding 3
  42. Commercial name                          : Dolby Digital
  43. Codec ID                                 : A_AC3
  44. Duration                                 : 1 h 40 min
  45. Bit rate mode                            : Constant
  46. Bit rate                                 : 640 kb/s
  47. Channel(s)                               : 6 channels
  48. Channel layout                           : L R C LFE Ls Rs
  49. Sampling rate                            : 48.0 kHz
  50. Frame rate                               : 31.250 FPS (1536 SPF)
  51. Compression mode                         : Lossy
  52. Stream size                              : 458 MiB (9%)
  53. Title                                    : 英语原声
  54. Language                                 : English
  55. Service kind                             : Complete Main
  56. Default                                  : Yes
  57. Forced                                   : No
  58. Audio #2
  59. ID                                       : 3
  60. Format                                   : AC-3
  61. Format/Info                              : Audio Coding 3
  62. Commercial name                          : Dolby Digital
  63. Codec ID                                 : A_AC3
  64. Duration                                 : 1 h 40 min
  65. Bit rate mode                            : Constant
  66. Bit rate                                 : 448 kb/s
  67. Channel(s)                               : 6 channels
  68. Channel layout                           : L R C LFE Ls Rs
  69. Sampling rate                            : 48.0 kHz
  70. Frame rate                               : 31.250 FPS (1536 SPF)
  71. Compression mode                         : Lossy
  72. Stream size                              : 321 MiB (6%)
  73. Title                                    : 八一国配
  74. Language                                 : Chinese
  75. Service kind                             : Complete Main
  76. Default                                  : No
  77. Forced                                   : No
  78. Text #1
  79. ID                                       : 4
  80. Format                                   : PGS
  81. Muxing mode                              : zlib
  82. Codec ID                                 : S_HDMV/PGS
  83. Codec ID/Info                            : Picture based subtitle format used on BDs/HD-DVDs
  84. Duration                                 : 1 h 32 min
  85. Bit rate                                 : 45.4 kb/s
  86. Count of elements                        : 3426
  87. Stream size                              : 30.1 MiB (1%)
  88. Title                                    : 英文
  89. Language                                 : English
  90. Default                                  : Yes
  91. Forced                                   : No
  92. Text #2
  93. ID                                       : 5
  94. Format                                   : PGS
  95. Muxing mode                              : zlib
  96. Codec ID                                 : S_HDMV/PGS
  97. Codec ID/Info                            : Picture based subtitle format used on BDs/HD-DVDs
  98. Duration                                 : 1 h 34 min
  99. Bit rate                                 : 55.1 kb/s
  100. Count of elements                        : 3619
  101. Stream size                              : 37.4 MiB (1%)
  102. Title                                    : 囯配简中特效
  103. Language                                 : Chinese
  104. Default                                  : No
  105. Forced                                   : No
  106. Text #3
  107. ID                                       : 6
  108. Format                                   : PGS
  109. Muxing mode                              : zlib
  110. Codec ID                                 : S_HDMV/PGS
  111. Codec ID/Info                            : Picture based subtitle format used on BDs/HD-DVDs
  112. Duration                                 : 1 h 34 min
  113. Bit rate                                 : 79.6 kb/s
  114. Count of elements                        : 3771
  115. Stream size                              : 54.1 MiB (1%)
  116. Title                                    : 简英双语特效
  117. Language                                 : Chinese
  118. Default                                  : No
  119. Forced                                   : No
  120. Text #4
  121. ID                                       : 7
  122. Format                                   : PGS
  123. Muxing mode                              : zlib
  124. Codec ID                                 : S_HDMV/PGS
  125. Codec ID/Info                            : Picture based subtitle format used on BDs/HD-DVDs
  126. Duration                                 : 1 h 39 min
  127. Bit rate                                 : 26.9 kb/s
  128. Count of elements                        : 3098
  129. Stream size                              : 19.0 MiB (0%)
  130. Title                                    : 蓝光原盘繁中
  131. Language                                 : Chinese
  132. Default                                  : No
  133. Forced                                   : No
  134. Text #5
  135. ID                                       : 8
  136. Format                                   : PGS
  137. Muxing mode                              : zlib
  138. Codec ID                                 : S_HDMV/PGS
  139. Codec ID/Info                            : Picture based subtitle format used on BDs/HD-DVDs
  140. Duration                                 : 1 h 32 min
  141. Bit rate                                 : 25.9 kb/s
  142. Count of elements                        : 3253
  143. Stream size                              : 17.2 MiB (0%)
  144. Title                                    : 简体中文
  145. Language                                 : Chinese
  146. Default                                  : No
  147. Forced                                   : No
  148. Text #6
  149. ID                                       : 9
  150. Format                                   : PGS
  151. Muxing mode                              : zlib
  152. Codec ID                                 : S_HDMV/PGS
  153. Codec ID/Info                            : Picture based subtitle format used on BDs/HD-DVDs
  154. Duration                                 : 1 h 34 min
  155. Bit rate                                 : 26.4 kb/s
  156. Count of elements                        : 3257
  157. Stream size                              : 17.9 MiB (0%)
  158. Title                                    : 繁体中文
  159. Language                                 : Chinese
  160. Default                                  : No
  161. Forced                                   : No
  162. Text #7
  163. ID                                       : 10
  164. Format                                   : PGS
  165. Muxing mode                              : zlib
  166. Codec ID                                 : S_HDMV/PGS
  167. Codec ID/Info                            : Picture based subtitle format used on BDs/HD-DVDs
  168. Duration                                 : 1 h 34 min
  169. Bit rate                                 : 48.7 kb/s
  170. Count of elements                        : 3259
  171. Stream size                              : 33.0 MiB (1%)
  172. Title                                    : 简英双语
  173. Language                                 : Chinese
  174. Default                                  : No
  175. Forced                                   : No
  176. Text #8
  177. ID                                       : 11
  178. Format                                   : PGS
  179. Muxing mode                              : zlib
  180. Codec ID                                 : S_HDMV/PGS
  181. Codec ID/Info                            : Picture based subtitle format used on BDs/HD-DVDs
  182. Duration                                 : 1 h 34 min
  183. Bit rate                                 : 49.7 kb/s
  184. Count of elements                        : 3259
  185. Stream size                              : 33.7 MiB (1%)
  186. Title                                    : 繁英双语
  187. Language                                 : Chinese
  188. Default                                  : No
  189. Forced                                   : No
  190. Menu
  191. 00:00:00.000                             : en:Chapter 01
  192. 00:04:39.779                             : en:Chapter 02
  193. 00:08:54.408                             : en:Chapter 03
  194. 00:14:10.307                             : en:Chapter 04
  195. 00:17:46.482                             : en:Chapter 05
  196. 00:22:38.607                             : en:Chapter 06
  197. 00:28:33.002                             : en:Chapter 07
  198. 00:33:45.481                             : en:Chapter 08
  199. 00:37:26.702                             : en:Chapter 09
  200. 00:42:16.116                             : en:Chapter 10
  201. 00:48:31.533                             : en:Chapter 11
  202. 00:51:24.247                             : en:Chapter 12
  203. 00:56:04.736                             : en:Chapter 13
  204. 01:01:12.669                             : en:Chapter 14
  205. 01:05:40.311                             : en:Chapter 15
  206. 01:12:03.068                             : en:Chapter 16
  207. 01:16:24.496                             : en:Chapter 17
  208. 01:21:07.988                             : en:Chapter 18
  209. 01:27:57.939                             : en:Chapter 19
  210. 01:33:40.615                             : en:Chapter 20
复制代码




TAGS 剧情 喜剧 家庭 /

磁力链:
  • magnet:?xt=urn:btih:F78DA667C5B786E2424A1DD4E38DFB21C0A86387
上传的附件:
BT9527电影天堂 1、BT9527电影天堂提供的BT文件均来源于互联网抓取,只供网友学习交流、技术提升使用。
2、我们遵守BitTorrent点对点协议原则,任何版权问题请联系原资源发布商,我们不处理任何版权纠纷,谢谢!如有争议请联系邮箱:BT9527#hotmail.com(#换成@)
3、如果您发现某页面或地址有错误,请联系站长邮箱BT9527#hotmail.com(#换成@),我们会尽快处理。您的热心是对BT9527电影天堂最大的支持。
4、本站建议去正规影院观看电影以支持电影行业发展。
最新回复 (0)

你可以在 登录 or 注册 后,对此帖发表评论!

返回
发新帖