一九四一[中英字幕].1941.1979.BluRay.1080p.x265.10bit-MiniHD 4.90GB

版主小s 1月前 260



◎译  名 一九四一 / 1941年
◎片  名 1941
◎年  代 1979
◎产  地 美国
◎类  别 喜剧 / 战争
◎语  言 英语 / 日语 / 德语
◎上映日期 1979-12-13
◎IMDb链接 https://www.imdb.com/title/tt0078723/
◎豆瓣评分 6.4/10 (1416人评价)
◎豆瓣链接 https://movie.douban.com/subject/1293119/
◎片  长 118 分钟
◎导  演 史蒂文·斯皮尔伯格 Steven Spielberg (id:1054440)
◎编  剧 罗伯特·泽米吉斯 Robert Zemeckis (id:1053564)
       鲍勃·盖尔 Bob Gale (id:1018297)
       约翰·米利厄斯 John Milius (id:1000285)
◎演  员 丹·艾克罗伊德 Dan Aykroyd (id:1010562)
       尼德·巴蒂 Ned Beatty (id:1010558)
       约翰·贝鲁西 John Belushi (id:1004658)
       特里特·威廉斯 Treat Williams (id:1036434)
       克里斯托弗·李 Christopher Lee (id:1054467)
       博比·迪奇科 Bobby Di Cicco (id:1349528)
       黛安娜·凯 Dianne Kay (id:1109942)
       塞缪尔·富勒 Samuel Fuller (id:1025328)
       三船敏郎 Toshir? Mifune (id:1056027)
       加里·弗雷德里克森 Gray Frederickson (id:1284139)
       巴茨·费特香斯 Buzz Feitshans (id:1283529)
       约翰·威廉姆斯 John Williams (id:1054692)
       Dean Edward Mitzner Dean Edward Mitzner (id:1292250)
       约翰·P·奥斯汀 John P. Austin (id:1277589)
       戴博拉·纳杜尔曼 Deborah Nadoolman (id:1292863)
       苏珊·杰曼 Susan Germaine (id:1284736)
       Dorothy J. Pearl Dorothy J. Pearl (id:1294172)
       Steve Perry Steve Perry (id:1294334)
       马修·尤里奇 Matthew Yuricich (id:1301579)
       马特·斯文尼 Matt Sweeney (id:1298720)
       Richard Stutsman Richard Stutsman (id:1298590)
       罗伯特·肖特 Robert Short (id:1297515)
       格雷戈里·杰恩 Gregory Jein (id:1287652)
       Anthony Doublin Anthony Doublin (id:1282638)

◎简  介
  这部无厘头式的搞笑电影由史蒂文·斯皮尔伯格执导,并一举获得了奥斯卡三项提名。故事发生在日本偷袭珍珠港后几天的洛杉矶,日本侵犯所带来的恐惧将洛杉矶变成了有如地狱之城。“1941”在好莱坞创造了许多奇异的角色,如热情的军人、极度感伤爱哭的女孩及争吵不休的纳粹,加上怪异莫名的骚动--一个逃离渡口的舵轮、一栋两层楼的废墟。

◎获奖情况 (共3项)
  第52届奥斯卡金像奖 (1980)
  最佳摄影(提名)
   └──威廉·弗兰克 (id:1027982)
  最佳视觉效果(提名)
  最佳音响(提名)

  1. ##### MediaInfo ######
  2. General
  3. Unique ID                                : 182937764114621662175890850649081575994 (0x89A088232D5607EFB870BE0F028AFA3A)
  4. Complete name                            : 1941.1979.BluRay.1080p.x265.10bit-MiniHD.mkv
  5. Format                                   : Matroska
  6. Format version                           : Version 4
  7. File size                                : 4.89 GiB
  8. Duration                                 : 2 h 26 min
  9. Overall bit rate                         : 4 797 kb/s
  10. Encoded date                             : UTC 2017-04-21 08:16:03
  11. Writing application                      : mkvmerge v9.7.1 ('Pandemonium') 64bit
  12. Writing library                          : libebml v1.3.4 + libmatroska v1.4.5
  13. Video
  14. ID                                       : 1
  15. Format                                   : HEVC
  16. Format/Info                              : High Efficiency Video Coding
  17. Format profile                           : Main 10@L4@Main
  18. Codec ID                                 : V_MPEGH/ISO/HEVC
  19. Duration                                 : 2 h 26 min
  20. Bit rate                                 : 4 061 kb/s
  21. Width                                    : 1 920 pixels
  22. Height                                   : 816 pixels
  23. Display aspect ratio                     : 2.35:1
  24. Frame rate mode                          : Constant
  25. Frame rate                               : 23.976 (24000/1001/53354) FPS
  26. Color space                              : YUV
  27. Chroma subsampling                       : 4:2:0
  28. Bit depth                                : 10 bits
  29. Bits/(Pixel*Frame)                       : 0.108
  30. Stream size                              : 4.14 GiB (85%)
  31. Writing library                          : x265 2.3+24-a0eee4b41185:[Windows][GCC 6.3.0][64 bit] 10bit
  32. Encoding settings                        : cpuid=533541173503 / frame-threads=6 / numa-pools=36 / wpp / no-pmode / no-pme / no-psnr / no-ssim / log-level=2 / input-csp=1 / input-res=1920x816 / interlace=0 / total-frames=210168 / level-idc=0 / high-tier=1 / uhd-bd=0 / ref=5 / no-allow-non-conformance / no-repeat-headers / annexb / no-aud / no-hrd / info / hash=0 / no-temporal-layers / no-open-gop / min-keyint=1 / keyint=360 / bframes=8 / b-adapt=2 / b-pyramid / bframe-bias=0 / rc-lookahead=60 / lookahead-slices=4 / NTMzNTQ=uuDQuD2mJt9fsCf / scenecut=40 / no-intra-refresh / ctu=32 / min-cu-size=8 / rect / no-amp / max-tu-size=16 / tu-inter-depth=2 / tu-intra-depth=2 / limit-tu=4 / rdoq-level=2 / dynamic-rd=0.00 / signhide / no-tskip / nr-intra=0 / nr-inter=0 / no-constrained-intra / no-strong-intra-smoothing / max-merge=3 / limit-refs=2 / limit-modes / me=3 / subme=5 / merange=25 / temporal-mvp / weightp / weightb / no-analyze-src-pics / deblock=-1:-1 / no-sao / no-sao-non-deblock / rd=4 / no-early-skip / rskip / no-fast-intra / no-tskip-fast / no-cu-lossless / b-intra / rdpenalty=1 / psy-rd=0.00 / psy-rdoq=5.00 / no-rd-refine / analysis-mode=0 / no-lossless / cbqpoffs=-2 / crqpoffs=-2 / rc=crf / crf=20.0 / qcomp=0.65 / qpstep=4 / stats-write=0 / stats-read=0 / ipratio=1.40 / pbratio=1.30 / aq-mode=2 / aq-strength=0.80 / cutree / zone-count=0 / no-strict-cbr / qg-size=16 / no-rc-grain / qpmax=69 / qpmin=0 / sar=0 / overscan=0 / videoformat=5 / range=0 / colorprim=1 / transfer=2 / colormatrix=2 / chromaloc=0 / display-window=0 / max-cll=0,0 / min-luma=0 / max-luma=1023 / log2-max-poc-lsb=8 / vui-timing-info / vui-hrd-info / slices=1 / opt-qp-pps / opt-ref-list-length-pps / no-multi-pass-opt-rps / scenecut-bias=0.05 / no-opt-cu-delta-qp / no-aq-motion / no-hdr / no-hdr-opt / refine-level=5
  33. Default                                  : Yes
  34. Forced                                   : No
  35. Color range                              : Limited
  36. Color primaries                          : BT.709
  37. Audio
  38. ID                                       : 2
  39. Format                                   : AC-3
  40. Format/Info                              : Audio Coding 3
  41. Commercial name                          : Dolby Digital
  42. Codec ID                                 : A_AC3
  43. Duration                                 : 2 h 26 min
  44. Bit rate mode                            : Constant
  45. Bit rate                                 : 640 kb/s
  46. Channel(s)                               : 6 channels
  47. Channel layout                           : L R C LFE Ls Rs
  48. Sampling rate                            : 48.0 kHz
  49. Frame rate                               : 31.250 FPS (1536 SPF)
  50. Compression mode                         : Lossy
  51. Stream size                              : 669 MiB (13%)
  52. Language                                 : English
  53. Service kind                             : Complete Main
  54. Default                                  : Yes
  55. Forced                                   : No
  56. Text #1
  57. ID                                       : 3
  58. Format                                   : PGS
  59. Muxing mode                              : zlib
  60. Codec ID                                 : S_HDMV/PGS
  61. Codec ID/Info                            : Picture based subtitle format used on BDs/HD-DVDs
  62. Language                                 : English
  63. Default                                  : Yes
  64. Forced                                   : No
  65. Text #2
  66. ID                                       : 4
  67. Format                                   : PGS
  68. Muxing mode                              : zlib
  69. Codec ID                                 : S_HDMV/PGS
  70. Codec ID/Info                            : Picture based subtitle format used on BDs/HD-DVDs
  71. Language                                 : Chinese
  72. Default                                  : No
  73. Forced                                   : No
  74. Text #3
  75. ID                                       : 5
  76. Format                                   : PGS
  77. Muxing mode                              : zlib
  78. Codec ID                                 : S_HDMV/PGS
  79. Codec ID/Info                            : Picture based subtitle format used on BDs/HD-DVDs
  80. Language                                 : Chinese
  81. Default                                  : No
  82. Forced                                   : No
  83. Text #4
  84. ID                                       : 6
  85. Format                                   : PGS
  86. Muxing mode                              : zlib
  87. Codec ID                                 : S_HDMV/PGS
  88. Codec ID/Info                            : Picture based subtitle format used on BDs/HD-DVDs
  89. Language                                 : Chinese
  90. Default                                  : No
  91. Forced                                   : No
  92. Menu
  93. 00:00:00.000                             : en:Chapter 01
  94. 00:07:20.273                             : en:Chapter 02
  95. 00:16:35.953                             : en:Chapter 03
  96. 00:25:31.988                             : en:Chapter 04
  97. 00:37:06.724                             : en:Chapter 05
  98. 00:48:00.752                             : en:Chapter 06
  99. 00:55:04.718                             : en:Chapter 07
  100. 01:08:51.460                             : en:Chapter 08
  101. 01:16:06.311                             : en:Chapter 09
  102. 01:27:29.994                             : en:Chapter 10
  103. 01:35:22.425                             : en:Chapter 11
  104. 01:41:23.035                             : en:Chapter 12
  105. 01:46:49.986                             : en:Chapter 13
  106. 01:56:24.477                             : en:Chapter 14
  107. 02:03:13.719                             : en:Chapter 15
  108. 02:10:47.673                             : en:Chapter 16
  109. 02:16:20.672                             : en:Chapter 17
  110. 02:19:51.466                             : en:Chapter 18
复制代码




TAGS 喜剧 战争 /

磁力链:
  • magnet:?xt=urn:btih:AB31818D6F90527687F3376F2AB8A8A2BB27B50B
上传的附件:
BT9527电影天堂 1、BT9527电影天堂提供的BT文件均来源于互联网抓取,只供网友学习交流、技术提升使用。
2、我们遵守BitTorrent点对点协议原则,任何版权问题请联系原资源发布商,我们不处理任何版权纠纷,谢谢!如有争议请联系邮箱:BT9527#hotmail.com(#换成@)
3、如果您发现某页面或地址有错误,请联系站长邮箱BT9527#hotmail.com(#换成@),我们会尽快处理。您的热心是对BT9527电影天堂最大的支持。
4、本站建议去正规影院观看电影以支持电影行业发展。
最新回复 (0)

你可以在 登录 or 注册 后,对此帖发表评论!

返回
发新帖