动物园长的夫人[中英字幕].The.Zookeeper's.Wife.2017.BluRay.1080p.x265.10bit-MiniHD 4.94GB

版主小s 1月前 193

◎译 名 动物园长的夫人 / 园长夫人:动物园的奇迹(台) / 烽火动物园(港)

◎片 名 The Zookeeper's Wife

◎年 代 2017

◎产 地 捷克 / 英国

◎类 别 剧情 / 传记 / 历史 / 战争

◎语 言 英语

◎上映日期 2017-03-12(圣何塞电影节) / 2017-04-07(美国)

◎IMDb链接 https://www.imdb.com/title/tt1730768/

◎豆瓣评分 7.3/10 (11957人评价)

◎豆瓣链接 https://movie.douban.com/subject/24522026/

◎片 长 127分钟

◎导 演 妮琪·卡罗 Niki Caro (id:1280119)

◎编 剧 黛安·艾克曼 Diane Ackerman (id:1371502)

安吉拉·沃克曼 Angela Workman (id:1353154)

◎演 员 杰西卡·查斯坦 Jessica Chastain (id:1000225)

约翰·海尔登贝格 Johan Heldenbergh (id:1286385)

丹尼尔·布鲁赫 Daniel Brühl (id:1053566)

蒂莫西·拉德福德 Timothy Radford (id:1371503)

伊芙雷特·多 Efrat Dor (id:1371504)

伊多·戈德堡 Iddo Goldberg (id:1096964)

希拉·哈斯 Shira Haas (id:1356170)

迈克尔·麦克埃尔哈顿 Michael McElhatton (id:1291550)

瓦尔·马罗库 Val Maloku (id:1371505)

玛尔塔·艾索瓦 Martha Issová (id:1113548)

丹尼尔·雷提莫斯基 Daniel Ratimorsky (id:1371506)

弗雷德里克·普雷斯顿 Frederick Preston (id:1371507)

西奥·普雷斯顿 Theo Preston (id:1371508)

戈兰·卡斯蒂克 Goran Kostic (id:1178320)

阿诺斯特·戈尔德弗拉姆 Arnost Goldflam (id:1101865)

瓦尔德马·科布斯 Waldemar Kobus (id:1342767)

斯拉夫科·索宾 Slavko Sobin (id:1363502)

艾琳娜·米霍洛娃 Alena Mihulová (id:1122944)

雅罗米尔·诺塞克 Jaromír Nosek (id:1129797)

雅姿·坎利 Yaz Canli (id:1364009)

克里斯托弗·康纳德 Kristof Konrad (id:1113553)

Petra Buckova Petra Buckova (id:1422605)

安娜·鲁斯特 Anna Rust (id:1332230)

布莱恩·卡斯佩 Brian Caspe (id:1185866)

玛格达莱娜·朗帕斯卡 Magdalena Lamparska (id:1440523)

哈里·格雷格森-威廉姆斯 Harry Gregson-Williams (id:1056131)

◎简 介

据最新消息,《北方风云》、《鲸骑士》女导演妮基·卡罗将执导拍摄一部讲述二战时期纳粹屠杀犹太人题材的影片《动物园长的夫人》,该片改编自戴安娜·阿克曼同名小说,已确定由“劳模姐”杰西卡·查斯坦、丹尼尔·布鲁赫(《无耻混蛋》) 、约翰·海尔登贝格主演,《雪花与秘扇》编剧安吉拉·沃克曼负责脚本,另外焦点影业和环球影业则分别获得了该片北美以与欧洲的发行版权。 原著小说《动物园长的夫人》的故事发生在二战时期的华沙,在德军斯图卡轰炸机的肆虐下变成了一片废墟,城里的动物园也一起遭了殃,动物死了一大半。动物园园长简和他的夫人安东尼娜开始将犹太人偷偷带进空荡荡的兽栏。动物牢笼变身为诺亚方舟,躲藏在兽栏内的人以动物为代号,而动物却起了人的名字。每当夜幕降临,“游客们”便走出黑暗,一同用餐、交谈;遇到少有风平浪静的光景,还能来场钢琴音乐会。简活跃在波兰的秘密抵抗组织中,他将...

  1. ##### MediaInfo ######

  2. General

  3. Unique ID : 191905132338758033068006859539250091382 (0x905F95869CEBB5D2B3A595091F831576)

  4. Complete name : The.Zookeeper's.Wife.2017.BluRay.1080p.x265.10bit-MiniHD.mkv

  5. Format : Matroska

  6. Format version : Version 4

  7. File size : 4.93 GiB

  8. Duration : 2 h 6 min

  9. Overall bit rate : 5 584 kb/s

  10. Encoded date : UTC 2017-07-04 02:51:26

  11. Writing application : mkvmerge v13.0.0 ('The Juggler') 64bit

  12. Writing library : libebml v1.3.4 + libmatroska v1.4.5

  13. Video

  14. ID : 6

  15. Format : HEVC

  16. Format/Info : High Efficiency Video Coding

  17. Format profile : Main 10@L4@Main

  18. Codec ID : V_MPEGH/ISO/HEVC

  19. Duration : 2 h 6 min

  20. Bit rate : 4 902 kb/s

  21. Width : 1 920 pixels

  22. Height : 800 pixels

  23. Display aspect ratio : 2.40:1

  24. Frame rate mode : Constant

  25. Frame rate : 23.976 (24000/1001/53354) FPS

  26. Color space : YUV

  27. Chroma subsampling : 4:2:0

  28. Bit depth : 10 bits

  29. Bits/(Pixel*Frame) : 0.133

  30. Stream size : 4.33 GiB (88%)

  31. Writing library : x265 2.4+6-fd01abfc7898:[Windows][GCC 6.3.0][64 bit] 10bit

  32. Encoding settings : cpuid=533541173503 / frame-threads=6 / numa-pools=20,20 / wpp / no-pmode / pme / no-psnr / no-ssim / log-level=2 / input-csp=1 / input-res=1920x800 / interlace=0 / total-frames=0 / level-idc=0 / high-tier=1 / uhd-bd=0 / ref=4 / no-allow-non-conformance / no-repeat-headers / annexb / no-aud / no-hrd / info / hash=0 / no-temporal-layers / no-open-gop / min-keyint=1 / keyint=360 / bframes=8 / b-adapt=1 / b-pyramid / bframe-bias=0 / rc-lookahead=250 / lookahead-slices=4 / NTMzNTQ=uuDQuD2mJt9fsCf / scenecut=40 / no-intra-refresh / ctu=32 / min-cu-size=8 / no-rect / no-amp / max-tu-size=32 / tu-inter-depth=2 / tu-intra-depth=2 / limit-tu=4 / rdoq-level=2 / dynamic-rd=0.00 / ssim-rd / signhide / no-tskip / nr-intra=0 / nr-inter=0 / no-constrained-intra / no-strong-intra-smoothing / max-merge=3 / limit-refs=2 / limit-modes / me=2 / subme=5 / merange=44 / temporal-mvp / weightp / weightb / no-analyze-src-pics / deblock=-2:-2 / no-sao / no-sao-non-deblock / rd=4 / no-early-skip / no-rskip / no-fast-intra / no-tskip-fast / no-cu-lossless / b-intra / rdpenalty=0 / psy-rd=0.00 / psy-rdoq=3.00 / no-rd-refine / analysis-mode=0 / no-lossless / cbqpoffs=-3 / crqpoffs=-3 / rc=crf / crf=20.0 / qcomp=0.70 / qpstep=4 / stats-write=0 / stats-read=0 / ipratio=1.40 / pbratio=1.20 / aq-mode=2 / aq-strength=0.90 / cutree / zone-count=0 / no-strict-cbr / qg-size=16 / no-rc-grain / qpmax=51 / qpmin=0 / sar=0 / overscan=0 / videoformat=5 / range=0 / colorprim=2 / transfer=2 / colormatrix=2 / chromaloc=0 / display-window=0 / max-cll=0,0 / min-luma=0 / max-luma=1023 / log2-max-poc-lsb=8 / vui-timing-info / vui-hrd-info / slices=1 / opt-qp-pps / opt-ref-list-length-pps / no-multi-pass-opt-rps / scenecut-bias=0.05 / no-opt-cu-delta-qp / no-aq-motion / no-hdr / no-hdr-opt / no-dhdr10-opt / refine-level=5 / no-limit-sao

  33. Default : Yes

  34. Forced : No

  35. Audio

  36. ID : 1

  37. Format : AC-3

  38. Format/Info : Audio Coding 3

  39. Commercial name : Dolby Digital

  40. Codec ID : A_AC3

  41. Duration : 2 h 6 min

  42. Bit rate mode : Constant

  43. Bit rate : 640 kb/s

  44. Channel(s) : 6 channels

  45. Channel layout : L R C LFE Ls Rs

  46. Sampling rate : 48.0 kHz

  47. Frame rate : 31.250 FPS (1536 SPF)

  48. Compression mode : Lossy

  49. Stream size : 579 MiB (11%)

  50. Service kind : Complete Main

  51. Default : Yes

  52. Forced : No

  53. Text #1

  54. ID : 2

  55. Format : PGS

  56. Muxing mode : zlib

  57. Codec ID : S_HDMV/PGS

  58. Codec ID/Info : Picture based subtitle format used on BDs/HD-DVDs

  59. Duration : 1 h 58 min

  60. Bit rate : 25.7 kb/s

  61. Count of elements : 2336

  62. Stream size : 21.8 MiB (0%)

  63. Language : English

  64. Default : Yes

  65. Forced : No

  66. Text #2

  67. ID : 3

  68. Format : PGS

  69. Muxing mode : zlib

  70. Codec ID : S_HDMV/PGS

  71. Codec ID/Info : Picture based subtitle format used on BDs/HD-DVDs

  72. Duration : 2 h 0 min

  73. Bit rate : 15.8 kb/s

  74. Count of elements : 1819

  75. Stream size : 13.6 MiB (0%)

  76. Language : Chinese

  77. Default : No

  78. Forced : No

  79. Text #3

  80. ID : 4

  81. Format : PGS

  82. Muxing mode : zlib

  83. Codec ID : S_HDMV/PGS

  84. Codec ID/Info : Picture based subtitle format used on BDs/HD-DVDs

  85. Duration : 2 h 0 min

  86. Bit rate : 15.6 kb/s

  87. Count of elements : 1819

  88. Stream size : 13.4 MiB (0%)

  89. Language : Chinese

  90. Default : No

  91. Forced : No

  92. Text #4

  93. ID : 5

  94. Format : PGS

  95. Muxing mode : zlib

  96. Codec ID : S_HDMV/PGS

  97. Codec ID/Info : Picture based subtitle format used on BDs/HD-DVDs

  98. Duration : 2 h 0 min

  99. Bit rate : 31.1 kb/s

  100. Count of elements : 2085

  101. Stream size : 26.8 MiB (1%)

  102. Language : Chinese

  103. Default : No

  104. Forced : No

  105. Menu

  106. 00:00:00.000 : en:Chapter 1

  107. 00:04:55.336 : en:Chapter 2

  108. 00:14:23.112 : en:Chapter 3

  109. 00:21:16.942 : en:Chapter 4

  110. 00:29:50.246 : en:Chapter 5

  111. 00:35:39.679 : en:Chapter 6

  112. 00:40:25.589 : en:Chapter 7

  113. 00:49:46.191 : en:Chapter 8

  114. 00:54:01.196 : en:Chapter 9

  115. 01:00:25.663 : en:Chapter 10

  116. 01:06:21.686 : en:Chapter 11

  117. 01:11:48.929 : en:Chapter 12

  118. 01:19:45.864 : en:Chapter 13

  119. 01:25:10.647 : en:Chapter 14

  120. 01:30:12.448 : en:Chapter 15

  121. 01:36:42.421 : en:Chapter 16

  122. 01:39:32.925 : en:Chapter 17

  123. 01:46:18.372 : en:Chapter 18

  124. 01:55:17.160 : en:Chapter 19

  125. 02:01:44.297 : en:Chapter 20


复制代码


TAGS 剧情 历史 传记 战争 /

磁力链:
  • magnet:?xt=urn:btih:061489B50A8A9730D4D27E04EBF214D67EB2101F
上传的附件:
BT9527电影天堂 1、BT9527电影天堂提供的BT文件均来源于互联网抓取,只供网友学习交流、技术提升使用。
2、我们遵守BitTorrent点对点协议原则,任何版权问题请联系原资源发布商,我们不处理任何版权纠纷,谢谢!如有争议请联系邮箱:BT9527#hotmail.com(#换成@)
3、如果您发现某页面或地址有错误,请联系站长邮箱BT9527#hotmail.com(#换成@),我们会尽快处理。您的热心是对BT9527电影天堂最大的支持。
4、本站建议去正规影院观看电影以支持电影行业发展。
最新回复 (0)

你可以在 登录 or 注册 后,对此帖发表评论!

返回
发新帖