返乡的旅程[中英字幕].Piku.2015.BluRay.1080p.x265.10bit-MiniHD 6.16GB

版主小s 1月前 116



◎译  名 返乡的旅程 / 父女情深 / 释然
◎片  名 Piku
◎年  代 2015
◎产  地 印度
◎类  别 剧情
◎语  言 印地语
◎上映日期 2015-05-08(印度)
◎IMDb链接 https://www.imdb.com/title/tt3767372/
◎豆瓣评分 6.7/10 (297人评价)
◎豆瓣链接 https://movie.douban.com/subject/26324641/
◎片  长 123分钟
◎导  演 舒吉特·瑟加 Shoojit Sircar (id:1312599)
◎演  员 迪皮卡·帕度柯妮 Deepika Padukone (id:1014002)
       阿米达普·巴强 Amitabh Bachchan (id:1027845)
       伊尔凡·可汗 Irrfan Khan (id:1108861)
       穆苏米·查特吉 Moushumi Chatterjee (id:1354712)
       基舒·森古普多 Jishu Sengupta (id:1421376)
       阿努帕姆·罗伊 Anupam Roy (id:1423508)

◎简  介
  皮库(迪皮卡·帕度柯妮 Deepika Padukone 饰)是一名女建筑师,在职场中非常精明强干的她生活里也是独立自主的新兴女性。母亲过世后,皮库不忍心看到父亲落单,于是照顾和陪伴父亲的责任就全部落在了她的肩上。然而,孤独的生活和丧妻的悲痛让父亲的性格变得越来越古怪,父女之间的隔阂渐渐变深,矛盾一触即发。                                    
                                父女两人在加尔各答有一处房产,房产中介企图说服皮库的父亲将这处房产卖掉。老父亲不但拒绝了中介的建议,还要求女儿驱车带他前往加尔各答,就这样,父女两人上路了。途中,他们还遇见了出租车旅游公司的老板拉纳(伊尔凡·可汗 Irrfan Khan 饰)。

◎获奖情况 (共3项)
  第61届印度电影观众奖 (2016)
  最佳女主角
   └──迪皮卡·帕度柯妮 (id:1014002)
  最佳剧本
   └──朱·查特维迪 (id:1327897)
  最佳背景音乐

  1. ##### MediaInfo ######
  2. General
  3. Unique ID                                : 210889343359188994383264533618437934234 (0x9EA7CF64DC57BB3DBB5C9A9FD2004C9A)
  4. Complete name                            : Piku.2015.BluRay.1080p.x265.10bit-MiniHD.mkv
  5. Format                                   : Matroska
  6. Format version                           : Version 4
  7. File size                                : 6.16 GiB
  8. Duration                                 : 2 h 2 min
  9. Overall bit rate                         : 7 169 kb/s
  10. Encoded date                             : UTC 2017-07-04 00:28:18
  11. Writing application                      : mkvmerge v13.0.0 ('The Juggler') 64bit
  12. Writing library                          : libebml v1.3.4 + libmatroska v1.4.5
  13. Video
  14. ID                                       : 1
  15. Format                                   : HEVC
  16. Format/Info                              : High Efficiency Video Coding
  17. Format profile                           : Main 10@L4@Main
  18. Codec ID                                 : V_MPEGH/ISO/HEVC
  19. Duration                                 : 2 h 2 min
  20. Bit rate                                 : 6 481 kb/s
  21. Width                                    : 1 920 pixels
  22. Height                                   : 820 pixels
  23. Display aspect ratio                     : 2.35:1
  24. Frame rate mode                          : Constant
  25. Frame rate                               : 24.000 FPS
  26. Color space                              : YUV
  27. Chroma subsampling                       : 4:2:0
  28. Bit depth                                : 10 bits
  29. Bits/(Pixel*Frame)                       : 0.172
  30. Stream size                              : 5.57 GiB (90%)
  31. Writing library                          : x265 2.4+6-fd01abfc7898:[Windows][GCC 6.3.0][64 bit] 10bit
  32. Encoding settings                        : cpuid=533541173503 / frame-threads=6 / numa-pools=20,20 / wpp / no-pmode / no-pme / no-psnr / no-ssim / log-level=2 / input-csp=1 / input-res=1920x820 / interlace=0 / total-frames=0 / level-idc=0 / high-tier=1 / uhd-bd=0 / ref=4 / no-allow-non-conformance / no-repeat-headers / annexb / no-aud / no-hrd / info / hash=0 / no-temporal-layers / no-open-gop / min-keyint=1 / keyint=360 / bframes=8 / b-adapt=1 / b-pyramid / bframe-bias=0 / rc-lookahead=250 / lookahead-slices=4 / NTMzNTQ=uuDQuD2mJt9fsCf / scenecut=40 / no-intra-refresh / ctu=32 / min-cu-size=8 / no-rect / no-amp / max-tu-size=32 / tu-inter-depth=2 / tu-intra-depth=2 / limit-tu=4 / rdoq-level=2 / dynamic-rd=0.00 / ssim-rd / signhide / no-tskip / nr-intra=0 / nr-inter=0 / no-constrained-intra / no-strong-intra-smoothing / max-merge=3 / limit-refs=2 / limit-modes / me=4 / subme=7 / merange=44 / temporal-mvp / weightp / weightb / no-analyze-src-pics / deblock=-2:-2 / no-sao / no-sao-non-deblock / rd=4 / no-early-skip / no-rskip / no-fast-intra / no-tskip-fast / no-cu-lossless / b-intra / rdpenalty=0 / psy-rd=0.00 / psy-rdoq=5.00 / no-rd-refine / analysis-mode=0 / no-lossless / cbqpoffs=-3 / crqpoffs=-3 / rc=crf / crf=19.0 / qcomp=0.70 / qpstep=4 / stats-write=0 / stats-read=0 / ipratio=1.40 / pbratio=1.20 / aq-mode=1 / aq-strength=0.80 / cutree / zone-count=0 / no-strict-cbr / qg-size=16 / no-rc-grain / qpmax=51 / qpmin=0 / sar=0 / overscan=0 / videoformat=5 / range=0 / colorprim=2 / transfer=2 / colormatrix=2 / chromaloc=0 / display-window=0 / max-cll=0,0 / min-luma=0 / max-luma=1023 / log2-max-poc-lsb=8 / vui-timing-info / vui-hrd-info / slices=1 / opt-qp-pps / opt-ref-list-length-pps / no-multi-pass-opt-rps / scenecut-bias=0.05 / no-opt-cu-delta-qp / no-aq-motion / no-hdr / no-hdr-opt / no-dhdr10-opt / refine-level=5 / no-limit-sao
  33. Default                                  : Yes
  34. Forced                                   : No
  35. Audio
  36. ID                                       : 3
  37. Format                                   : AC-3
  38. Format/Info                              : Audio Coding 3
  39. Commercial name                          : Dolby Digital
  40. Codec ID                                 : A_AC3
  41. Duration                                 : 2 h 2 min
  42. Bit rate mode                            : Constant
  43. Bit rate                                 : 640 kb/s
  44. Channel(s)                               : 6 channels
  45. Channel layout                           : L R C LFE Ls Rs
  46. Sampling rate                            : 48.0 kHz
  47. Frame rate                               : 31.250 FPS (1536 SPF)
  48. Compression mode                         : Lossy
  49. Stream size                              : 563 MiB (9%)
  50. Language                                 : Hindi
  51. Service kind                             : Complete Main
  52. Default                                  : Yes
  53. Forced                                   : No
  54. Text #1
  55. ID                                       : 2
  56. Format                                   : PGS
  57. Muxing mode                              : zlib
  58. Codec ID                                 : S_HDMV/PGS
  59. Codec ID/Info                            : Picture based subtitle format used on BDs/HD-DVDs
  60. Duration                                 : 1 h 52 min
  61. Bit rate                                 : 43.7 kb/s
  62. Count of elements                        : 3786
  63. Stream size                              : 35.3 MiB (1%)
  64. Language                                 : Chinese
  65. Default                                  : Yes
  66. Forced                                   : No
  67. Text #2
  68. ID                                       : 4
  69. Format                                   : PGS
  70. Muxing mode                              : zlib
  71. Codec ID                                 : S_HDMV/PGS
  72. Codec ID/Info                            : Picture based subtitle format used on BDs/HD-DVDs
  73. Duration                                 : 1 h 52 min
  74. Bit rate                                 : 41.6 kb/s
  75. Count of elements                        : 3109
  76. Stream size                              : 33.6 MiB (1%)
  77. Language                                 : English
  78. Default                                  : No
  79. Forced                                   : No
  80. Menu
  81. 00:00:00.000                             : en:Chapter 1
  82. 00:03:52.458                             : en:Chapter 2
  83. 00:13:17.291                             : en:Chapter 3
  84. 00:16:19.750                             : en:Chapter 4
  85. 00:24:34.041                             : en:Chapter 5
  86. 00:28:17.041                             : en:Chapter 6
  87. 00:30:22.208                             : en:Chapter 7
  88. 00:36:16.000                             : en:Chapter 8
  89. 00:41:17.000                             : en:Chapter 9
  90. 00:51:05.208                             : en:Chapter 10
  91. 00:54:04.000                             : en:Chapter 11
  92. 01:03:52.708                             : en:Chapter 12
  93. 01:18:03.625                             : en:Chapter 13
  94. 01:19:55.125                             : en:Chapter 14
  95. 01:29:43.166                             : en:Chapter 15
  96. 01:34:58.250                             : en:Chapter 16
  97. 01:40:24.333                             : en:Chapter 17
  98. 01:43:01.791                             : en:Chapter 18
  99. 01:46:44.708                             : en:Chapter 19
  100. 01:57:07.416                             : en:Chapter 20
复制代码




TAGS 剧情

磁力链:
  • magnet:?xt=urn:btih:99EB58DCA128C663D2BBDF24E3353DAD281C4C2F
上传的附件:
BT9527电影天堂 1、BT9527电影天堂提供的BT文件均来源于互联网抓取,只供网友学习交流、技术提升使用。
2、我们遵守BitTorrent点对点协议原则,任何版权问题请联系原资源发布商,我们不处理任何版权纠纷,谢谢!如有争议请联系邮箱:BT9527#hotmail.com(#换成@)
3、如果您发现某页面或地址有错误,请联系站长邮箱BT9527#hotmail.com(#换成@),我们会尽快处理。您的热心是对BT9527电影天堂最大的支持。
4、本站建议去正规影院观看电影以支持电影行业发展。
最新回复 (0)

你可以在 登录 or 注册 后,对此帖发表评论!

返回
发新帖