鼹鼠之歌完结篇[简繁字幕].The.Mole.Song.Final.2021.1080p.BluRay.x265.10bit.DTS-HomeHD 5.47GB

版主小s 1月前 256

◎译 名 鼹鼠之歌完结篇

◎片 名 土竜の唄 FINAL

◎年 代 2021

◎产 地 日本

◎语 言 日语

◎上映日期 2021-11-19(日本)

◎IMDb链接 https://www.imdb.com/title/tt14941348/

◎豆瓣链接 https://movie.douban.com/subject/35511117/

◎片 长 129分钟

◎导 演 三池崇史 Takashi Miike (id:1054407)

◎编 剧 宫藤官九郎 Kankur? Kud? (id:1012784)

◎演 员 生田斗真 T?ma Ikuta (id:1180142)

堤真一 Shin'ichi Tsutsumi (id:1151079)

仲里依纱 Riisa Naka (id:1274336)

吹越满 Mitsuru Fukikoshi (id:1008302)

远藤宪一 Ken'ichi End? (id:1080463)

皆川猿时 Sarutoki Minagawa (id:1007687)

岩城滉一 Kouichi Iwaki (id:1003755)

菜菜绪 Nanao (id:1325631)

冈村隆史 Takashi Okamura (id:1315212)

铃木亮平 Ryohei Suzuki (id:1313851)

◎简 介

Nipple-targeting seagulls. Old men rapping in a bathhouse. Drugs smuggled as Italian pasta. Welcome back to The Mole Song’s world. The third and final part of this series of manga adaptations, by IFFR regular Miike Takashi, is once again loaded with delicious madness.

Following Undercover Agent Reiji (IFFR 2014) and Hong Kong Capriccio (IFFR 2017), this time the enemy are Itali...

  1. ##### MediaInfo ######

  2. General

  3. Unique ID : 127819695160720348874694649507938808104 (0x60292D86DF79ECE46D7871A7B8FFB128)

  4. Complete name : The.Mole.Song.Final.2021.1080p.BluRay.x265.10bit.DTS-HomeHD.mkv

  5. Format : Matroska

  6. Format version : Version 4

  7. File size : 5.46 GiB

  8. Duration : 2 h 8 min

  9. Overall bit rate : 6 103 kb/s

  10. Movie name : The Mole Song: Final

  11. Encoded date : UTC 2022-05-26 14:14:09

  12. Writing application : mkvmerge v68.0.0 ('The Curtain') 64-bit

  13. Writing library : libebml v1.4.2 + libmatroska v1.6.4

  14. Attachments : FZZhunYuan-M02.ttf / FZHTK.TTF

  15. Video

  16. ID : 1

  17. Format : HEVC

  18. Format/Info : High Efficiency Video Coding

  19. Format profile : Main 10@L4@Main

  20. Codec ID : V_MPEGH/ISO/HEVC

  21. Duration : 2 h 8 min

  22. Bit rate : 4 571 kb/s

  23. Width : 1 920 pixels

  24. Height : 804 pixels

  25. Display aspect ratio : 2.40:1

  26. Frame rate mode : Constant

  27. Frame rate : 23.976 (24000/1001/53354) FPS

  28. Color space : YUV

  29. Chroma subsampling : 4:2:0

  30. Bit depth : 10 bits

  31. Bits/(Pixel*Frame) : 0.124

  32. Stream size : 4.09 GiB (75%)

  33. Language : Japanese

  34. Default : Yes

  35. Forced : No

  36. Audio

  37. ID : 2

  38. Format : DTS

  39. Format/Info : Digital Theater Systems

  40. Codec ID : A_DTS

  41. Duration : 2 h 8 min

  42. Bit rate mode : Constant

  43. Bit rate : 1 509 kb/s

  44. Channel(s) : 6 channels

  45. Channel layout : C L R Ls Rs LFE

  46. Sampling rate : 48.0 kHz

  47. Frame rate : 93.750 FPS (512 SPF)

  48. Bit depth : 24 bits

  49. Compression mode : Lossy

  50. Stream size : 1.35 GiB (25%)

  51. Language : Japanese

  52. Default : Yes

  53. Forced : No

  54. Text #1

  55. ID : 3

  56. Format : ASS

  57. Codec ID : S_TEXT/ASS

  58. Codec ID/Info : Advanced Sub Station Alpha

  59. Duration : 2 h 3 min

  60. Bit rate : 80 b/s

  61. Count of elements : 1468

  62. Compression mode : Lossless

  63. Stream size : 72.7 KiB (0%)

  64. Title : 简体

  65. Language : Chinese

  66. Default : Yes

  67. Forced : No

  68. Text #2

  69. ID : 4

  70. Format : ASS

  71. Codec ID : S_TEXT/ASS

  72. Codec ID/Info : Advanced Sub Station Alpha

  73. Duration : 2 h 3 min

  74. Bit rate : 80 b/s

  75. Count of elements : 1468

  76. Compression mode : Lossless

  77. Stream size : 72.7 KiB (0%)

  78. Title : 繁體

  79. Language : Chinese

  80. Default : No

  81. Forced : No

  82. Menu

  83. 00:00:00.000 : en:Chapter 01

  84. 00:03:32.712 : en:Chapter 02

  85. 00:14:30.870 : en:Chapter 03

  86. 00:16:43.377 : en:Chapter 04

  87. 00:26:28.879 : en:Chapter 05

  88. 00:35:08.148 : en:Chapter 06

  89. 00:44:02.431 : en:Chapter 07

  90. 00:55:12.267 : en:Chapter 08

  91. 01:01:05.495 : en:Chapter 09

  92. 01:09:26.412 : en:Chapter 10

  93. 01:16:10.566 : en:Chapter 11

  94. 01:21:12.451 : en:Chapter 12

  95. 01:26:39.861 : en:Chapter 13

  96. 01:31:08.463 : en:Chapter 14

  97. 01:41:44.640 : en:Chapter 15

  98. 01:53:54.619 : en:Chapter 16

  99. 02:00:00.193 : en:Chapter 17

  100. 02:04:22.121 : en:Chapter 18

  101. 02:08:09.682 : en:Chapter 19


复制代码


TAGS 剧情

磁力链:
  • magnet:?xt=urn:btih:DED1D2DBDDF1F8F8D67C3BE80D602985C7D90B70
上传的附件:
BT9527电影天堂 1、BT9527电影天堂提供的BT文件均来源于互联网抓取,只供网友学习交流、技术提升使用。
2、我们遵守BitTorrent点对点协议原则,任何版权问题请联系原资源发布商,我们不处理任何版权纠纷,谢谢!如有争议请联系邮箱:BT9527#hotmail.com(#换成@)
3、如果您发现某页面或地址有错误,请联系站长邮箱BT9527#hotmail.com(#换成@),我们会尽快处理。您的热心是对BT9527电影天堂最大的支持。
4、本站建议去正规影院观看电影以支持电影行业发展。
最新回复 (0)

你可以在 登录 or 注册 后,对此帖发表评论!

返回
发新帖