夏日幽灵[简繁字幕].Summer.Ghost.2021.1080p.BluRay.x265.10bit.DTS-HomeHD 2.16GB

版主小s 1月前 123

◎译 名 夏日幽灵 / 夏日幻魂 / Summer Ghost

◎片 名 サマーゴースト

◎年 代 2021

◎产 地 日本

◎类 别 动画 / 短片

◎语 言 日语

◎上映日期 2021-11-12(日本)

◎IMDb链接 https://www.imdb.com/title/tt15052770/

◎豆瓣评分 8.0/10 (4633人评价)

◎豆瓣链接 https://movie.douban.com/subject/35368245/

◎片 长 40分钟

◎导 演 Loundraw Loundraw (id:1414947)

◎编 剧 乙一 Otsuichi (id:1274890)

Loundraw Loundraw (id:1414947)

◎演 员 川荣李奈 Rina Kawaei (id:1322083)

小林千晃 Chiaki Kobayashi (id:1408729)

岛袋美由利 Miyuri Shimabukuro (id:1396969)

岛崎信长 Nobunaga Shimazaki (id:1318730)

本田贵子 Takako Honda (id:1024909)

佐藤元 Gen Satou (id:1419296)

高桥大辅 Daisuke Takahashi (id:1232799)

Loundraw Loundraw (id:1414947)

◎简 介

“知道夏日幻魂吗?”通过网络相识的高中生,友也、葵、凉。据称,都市传说中被称作“夏日幻魂”的是一位年轻女性的幽灵,只要燃放烟花她就会现身。无法迈向心仪人生的“友也”寻找不到容身之处的"葵"美好未来不翼而飞的"凉"他们分别有着必须见到夏日幻魂的理由。在生与死交织的夏夜,三人各自的思虑会迈向何方呢——

  1. ##### MediaInfo ######

  2. General

  3. Unique ID : 221131996334620237349466953487684440916 (0xA65C792CD46909DA8A91101B01839354)

  4. Complete name : Summer.Ghost.2021.1080p.BluRay.x265.10bit.DTS-HomeHD.mkv

  5. Format : Matroska

  6. Format version : Version 1

  7. File size : 2.15 GiB

  8. Duration : 39 min 53 s

  9. Overall bit rate : 7 731 kb/s

  10. Encoded date : UTC 2022-05-23 05:25:07

  11. Writing application : mkvmerge v2.2.0 ('Turn It On Again') built on Mar 4 2008 13:20:25

  12. Writing library : libebml v0.7.7 + libmatroska v0.8.1

  13. Attachments : MSYH.TTF / MSYH_chscht.ttf / MSYHBD.TTF / tahoma.ttf

  14. Video

  15. ID : 1

  16. Format : HEVC

  17. Format/Info : High Efficiency Video Coding

  18. Format profile : Main 10@L5@Main

  19. Codec ID : V_MPEGH/ISO/HEVC

  20. Duration : 39 min 53 s

  21. Bit rate : 6 068 kb/s

  22. Width : 1 920 pixels

  23. Height : 1 080 pixels

  24. Display aspect ratio : 16:9

  25. Frame rate mode : Constant

  26. Frame rate : 23.976 (24000/1001/53354) FPS

  27. Color space : YUV

  28. Chroma subsampling : 4:2:0

  29. Bit depth : 10 bits

  30. Bits/(Pixel*Frame) : 0.122

  31. Stream size : 1.69 GiB (78%)

  32. Default : Yes

  33. Forced : No

  34. Audio

  35. ID : 2

  36. Format : DTS

  37. Format/Info : Digital Theater Systems

  38. Codec ID : A_DTS

  39. Duration : 39 min 53 s

  40. Bit rate mode : Constant

  41. Bit rate : 1 509 kb/s

  42. Channel(s) : 6 channels

  43. Channel layout : C L R Ls Rs LFE

  44. Sampling rate : 48.0 kHz

  45. Frame rate : 93.750 FPS (512 SPF)

  46. Bit depth : 24 bits

  47. Compression mode : Lossy

  48. Stream size : 431 MiB (20%)

  49. Title : 日语

  50. Language : Japanese

  51. Default : Yes

  52. Forced : No

  53. Statistics Tags Issue : mkvmerge v67.0.0 ('Under Stars') 64-bit 2022-05-20 05:42:23 / mkvmerge v2.2.0 ('Turn It On Again') built on Mar 4 2008 13:20:25 2022-05-23 05:25:07

  54. FromStats_BitRate : 1509000

  55. FromStats_Duration : 00:39:53.472000000

  56. FromStats_FrameCount : 224388

  57. FromStats_StreamSize : 451468724

  58. Text #1

  59. ID : 3

  60. Format : ASS

  61. Codec ID : S_TEXT/ASS

  62. Codec ID/Info : Advanced Sub Station Alpha

  63. Compression mode : Lossless

  64. Title : chs

  65. Language : Chinese

  66. Default : Yes

  67. Forced : No

  68. Text #2

  69. ID : 4

  70. Format : ASS

  71. Codec ID : S_TEXT/ASS

  72. Codec ID/Info : Advanced Sub Station Alpha

  73. Compression mode : Lossless

  74. Title : cht

  75. Language : Chinese

  76. Default : No

  77. Forced : No


复制代码


TAGS 动画 / 短片

磁力链:
  • magnet:?xt=urn:btih:B5F4786F7258C4A31991FFCF9CC6D6787C3E24FE
上传的附件:
BT9527电影天堂 1、BT9527电影天堂提供的BT文件均来源于互联网抓取,只供网友学习交流、技术提升使用。
2、我们遵守BitTorrent点对点协议原则,任何版权问题请联系原资源发布商,我们不处理任何版权纠纷,谢谢!如有争议请联系邮箱:BT9527#hotmail.com(#换成@)
3、如果您发现某页面或地址有错误,请联系站长邮箱BT9527#hotmail.com(#换成@),我们会尽快处理。您的热心是对BT9527电影天堂最大的支持。
4、本站建议去正规影院观看电影以支持电影行业发展。
最新回复 (0)

你可以在 登录 or 注册 后,对此帖发表评论!

返回
发新帖