锈与骨[中文字幕].Rust.and.Bone.2012.1080p.BluRay.DTS.x265-10bit-ENTHD 7.62GB

版主小s 1月前 224

◎译 名 锈与骨 / 烈爱重生(台) / Rust and Bone

◎片 名 De rouille et d'os

◎年 代 2012

◎产 地 法国 / 比利时

◎类 别 剧情

◎语 言 法语

◎上映日期 2012-05-17(法国)

◎IMDb链接 https://www.imdb.com/title/tt2053425/

◎豆瓣评分 7.6/10 (26163人评价)

◎豆瓣链接 https://movie.douban.com/subject/6843843/

◎片 长 120分钟

◎导 演 雅克·欧迪亚 Jacques Audiard (id:1045070)

◎编 剧 克雷格?戴维森 Craig Davidson (id:1320176)

托马斯·彼得葛恩 Thomas Bidegain (id:1320175)

雅克·欧迪亚 Jacques Audiard (id:1045070)

◎演 员 马提亚斯·修奈尔 Matthias Schoenaerts (id:1148622)

玛丽昂·歌迪亚 Marion Cotillard (id:1006955)

伯利·兰内尔 Bouli Lanners (id:1048406)

席琳·赛莱 Céline Sallette (id:1320325)

科琳娜·马谢罗 Corinne Masiero (id:1341830)

吕克·达内 Luc Dardenne (id:1032736)

雅克·欧迪亚 Jacques Audiard (id:1045070)

让-皮埃尔·达内 Jean-Pierre Dardenne (id:1045271)

尤金·加尔佩里尼 Evgueni Galperine (id:1334068)

亚历山大·德斯普拉 Alexandre Desplat (id:1049972)

◎简 介

貌不惊人的阿里(马提亚斯·修奈尔 Matthias Schoenaerts 饰)曾经是一名风光无限的搏击选手,自从受伤之后他便失去了生活保障。穷困潦倒之际,他带着儿子山姆(Armand Verdure 饰)投靠姐姐,并在当地找到一份保镖的工作。某晚,阿里结识因别人发生争 执的美丽女子斯蒂芬妮(玛丽昂·歌迪亚 Marion Cotillard 饰)。斯蒂芬妮是一名虎鲸训练师,然而这个衣食无忧、日常为光环所环绕的女孩却在一次例行表演中被虎鲸夺去双腿。经历了不同人生的男女,彼此的命运意外交叠在了一起……

本片根据加拿大小说家克雷格·戴维森(Craig Davidson)的同名短篇小说集改编,荣获2012年西班牙瓦拉多利德国际电影节最佳男主角奖(Matthias Schoenaerts)、最佳导演奖和最佳剧本奖。

◎获奖情况 (共15项)

第65届戛纳电影节 (2012)

主竞赛单元 金棕榈奖(提名)

└──雅克·欧迪亚 (id:1045070)

第70届金球奖 (2013)

电影类 剧情片最佳女主角(提名)

└──玛丽昂·歌迪亚 (id:1006955)

电影类 最佳外语片(提名)

第27届西班牙戈雅奖 (2013)

最佳欧洲电影(提名)

└──雅克·欧迪亚 (id:1045070)

第57届意大利大卫奖 (2013)

最佳欧洲电影(提名)

└──雅克·欧迪亚 (id:1045070)

第56届伦敦电影节 (2012)

最佳影片

└──雅克·欧迪亚 (id:1045070)

第19届美国演员工会奖 (2013)

电影奖 最佳女主角(提名)

└──玛丽昂·歌迪亚 (id:1006955)

第18届美国评论家选择电影奖 (2013)

最佳女主角(提名)

└──玛丽昂·歌迪亚 (id:1006955)

最佳外语片(提名)

第28届美国独立精神奖 (2013)

最佳国际电影(提名)

└──雅克·欧迪亚 (id:1045070)

第15届英国独立电影奖 (2012)

最佳外国独立电影(提名)

第11届华盛顿影评人协会奖 (2012)

最佳女主角(提名)

└──玛丽昂·歌迪亚 (id:1006955)

最佳外语片(提名)

第25届芝加哥影评人协会奖 (2012)

最佳外语片(提名)

第3届豆瓣电影鑫像奖 (2013)

鑫豆单元 最佳女演员(外语)(提名)

└──玛丽昂·歌迪亚 (id:1006955)

  1. ##### MediaInfo ######

  2. General

  3. Unique ID : 6435231920844206092998185596383581585 (0x4D7616E0DDCB5118DD4575A7D0AD591)

  4. Complete name : Rust.and.Bone.2012.1080p.BluRay.DTS.x265-10bit-ENTHD.mkv

  5. Format : Matroska

  6. Format version : Version 4

  7. File size : 7.62 GiB

  8. Duration : 2 h 2 min

  9. Overall bit rate : 8 924 kb/s

  10. Movie name : Rust and Bone 2012 1080p BluRay DTS x265-10bit-HDS

  11. Encoded date : UTC 2022-05-26 22:39:23

  12. Writing application : mkvmerge v67.0.0 ('Under Stars') 64-bit

  13. Writing library : libebml v1.4.2 + libmatroska v1.6.4

  14. Video

  15. ID : 1

  16. Format : HEVC

  17. Format/Info : High Efficiency Video Coding

  18. Format profile : Main 10@L5.1@High

  19. Codec ID : V_MPEGH/ISO/HEVC

  20. Duration : 2 h 2 min

  21. Bit rate : 7 389 kb/s

  22. Width : 1 920 pixels

  23. Height : 800 pixels

  24. Display aspect ratio : 2.40:1

  25. Frame rate mode : Constant

  26. Frame rate : 24.000 FPS

  27. Color space : YUV

  28. Chroma subsampling : 4:2:0

  29. Bit depth : 10 bits

  30. Bits/(Pixel*Frame) : 0.200

  31. Stream size : 6.31 GiB (83%)

  32. Title : @HDSky

  33. Writing library : x265 - H.265/HEVC codec

  34. Default : Yes

  35. Forced : No

  36. Audio

  37. ID : 2

  38. Format : DTS

  39. Format/Info : Digital Theater Systems

  40. Codec ID : A_DTS

  41. Duration : 2 h 2 min

  42. Bit rate mode : Constant

  43. Bit rate : 1 509 kb/s

  44. Channel(s) : 6 channels

  45. Channel layout : C L R Ls Rs LFE

  46. Sampling rate : 48.0 kHz

  47. Frame rate : 93.750 FPS (512 SPF)

  48. Bit depth : 24 bits

  49. Compression mode : Lossy

  50. Stream size : 1.29 GiB (17%)

  51. Title : French

  52. Language : French

  53. Default : Yes

  54. Forced : No

  55. Text #1

  56. ID : 3

  57. Format : PGS

  58. Muxing mode : zlib

  59. Codec ID : S_HDMV/PGS

  60. Codec ID/Info : Picture based subtitle format used on BDs/HD-DVDs

  61. Duration : 1 h 53 min

  62. Bit rate : 19.6 kb/s

  63. Count of elements : 2065

  64. Stream size : 15.9 MiB (0%)

  65. Title : CHS

  66. Language : Chinese

  67. Default : Yes

  68. Forced : No

  69. Text #2

  70. ID : 4

  71. Format : PGS

  72. Muxing mode : zlib

  73. Codec ID : S_HDMV/PGS

  74. Codec ID/Info : Picture based subtitle format used on BDs/HD-DVDs

  75. Duration : 1 h 53 min

  76. Bit rate : 20.2 kb/s

  77. Count of elements : 2065

  78. Stream size : 16.5 MiB (0%)

  79. Title : CHT

  80. Language : Chinese

  81. Default : Yes

  82. Forced : No

  83. Menu

  84. 00:00:00.000 : en:第 01 章

  85. 00:08:29.583 : en:第 02 章

  86. 00:18:52.292 : en:第 03 章

  87. 00:29:32.292 : en:第 04 章

  88. 00:39:27.792 : en:第 05 章

  89. 00:49:43.292 : en:第 06 章

  90. 00:59:33.292 : en:第 07 章

  91. 01:09:59.208 : en:第 08 章

  92. 01:18:17.250 : en:第 09 章

  93. 01:29:47.792 : en:第 10 章

  94. 01:40:16.208 : en:第 11 章

  95. 01:49:17.708 : en:第 12 章


复制代码


TAGS 剧情

磁力链:
  • magnet:?xt=urn:btih:B562FDCB9A4E9C1241334618DC9BD51941A5017E
上传的附件:
BT9527电影天堂 1、BT9527电影天堂提供的BT文件均来源于互联网抓取,只供网友学习交流、技术提升使用。
2、我们遵守BitTorrent点对点协议原则,任何版权问题请联系原资源发布商,我们不处理任何版权纠纷,谢谢!如有争议请联系邮箱:BT9527#hotmail.com(#换成@)
3、如果您发现某页面或地址有错误,请联系站长邮箱BT9527#hotmail.com(#换成@),我们会尽快处理。您的热心是对BT9527电影天堂最大的支持。
4、本站建议去正规影院观看电影以支持电影行业发展。
最新回复 (0)

你可以在 登录 or 注册 后,对此帖发表评论!

返回
发新帖