生死巴拿马[中文字幕].Panama.2022.1080p.BluRay.DTS.x265-10bit-ENTHD 9.67GB

版主小s 29天前 142

◎译 名 生死巴拿马

◎片 名 Panama

◎年 代 2022

◎产 地 波多黎各 / 美国

◎类 别 动作 / 惊悚

◎语 言 英语

◎上映日期 2022-03-18(美国)

◎IMDb链接 https://www.imdb.com/title/tt4029412/

◎豆瓣评分 3.6/10 (246人评价)

◎豆瓣链接 https://movie.douban.com/subject/34809882/

◎片 长 94分钟

◎导 演 马克·耐沃尔代 Mark Neveldine (id:1044943)

◎编 剧 丹尼尔·亚当斯 Daniel Adams (id:1395768)

◎演 员 科尔·豪瑟 Cole Hauser (id:1000106)

梅尔·吉布森 Mel Gibson (id:1054530)

查理·韦伯 Charlie Weber (id:1169152)

杰基·克鲁兹 Jackie Cruz (id:1332183)

凯特?卡茨曼 Kate Katzman (id:1416160)

维克托·特平 Victor Turpin (id:1326091)

西蒙·飞利普斯 Simon Phillips (id:1308850)

杰伊·斯特凡 Jai Stefan (id:1412712)

让·皮埃尔·普拉茨 Jean Pierre Prats (id:1404309)

Néstor Rodulfo Néstor Rodulfo (id:1175639)

毛里西奥·埃瑙 Mauricio Hénao (id:1470023)

◎简 介

摩根·弗里曼、弗兰克·格里罗将主演动作新片[巴拿马](Panama,暂译)。本片取材自真实事件,故事背景设定在1989年的巴拿马,一位身强力壮、身披勋章的前海军陆战队员詹姆斯·贝克尔(格里罗饰)被他的前指挥官斯塔克(弗里曼饰)派去执行一个高价值的交易。因当地内战混乱,贝克尔必须与刺客、美女等谈判以完成任务。在斯塔克的陪伴下,贝克尔不顾一切地坚持了下来,只希望能活着回家。该片由Daniel Adams执导,并与William R. Barber共同撰写剧本,将于11月开拍。

  1. ##### MediaInfo ######

  2. General

  3. Unique ID : 33477264176111314816544013250249435699 (0x192F7C8EC1B34967B0D0BBB024392A33)

  4. Complete name : Panama.2022.1080p.BluRay.DTS.x265-10bit-ENTHD.mkv

  5. Format : Matroska

  6. Format version : Version 4

  7. File size : 9.66 GiB

  8. Duration : 1 h 34 min

  9. Overall bit rate : 14.6 Mb/s

  10. Movie name : Panama 2022 1080p BluRay DTS x265-10bit-HDS

  11. Encoded date : UTC 2022-05-26 08:51:49

  12. Writing application : mkvmerge v67.0.0 ('Under Stars') 64-bit

  13. Writing library : libebml v1.4.2 + libmatroska v1.6.4

  14. Video

  15. ID : 1

  16. Format : HEVC

  17. Format/Info : High Efficiency Video Coding

  18. Format profile : Main 10@L5.1@High

  19. Codec ID : V_MPEGH/ISO/HEVC

  20. Duration : 1 h 34 min

  21. Bit rate : 13.1 Mb/s

  22. Width : 1 920 pixels

  23. Height : 1 036 pixels

  24. Display aspect ratio : 1.85:1

  25. Frame rate mode : Constant

  26. Frame rate : 23.976 (24000/1001/53354) FPS

  27. Color space : YUV

  28. Chroma subsampling : 4:2:0

  29. Bit depth : 10 bits

  30. Bits/(Pixel*Frame) : 0.274

  31. Stream size : 8.64 GiB (89%)

  32. Title : 735674307@HDSky

  33. Writing library : x265 - H.265/HEVC codec

  34. Default : Yes

  35. Forced : No

  36. Audio

  37. ID : 2

  38. Format : DTS

  39. Format/Info : Digital Theater Systems

  40. Codec ID : A_DTS

  41. Duration : 1 h 34 min

  42. Bit rate mode : Constant

  43. Bit rate : 1 509 kb/s

  44. Channel(s) : 6 channels

  45. Channel layout : C L R Ls Rs LFE

  46. Sampling rate : 48.0 kHz

  47. Frame rate : 93.750 FPS (512 SPF)

  48. Bit depth : 24 bits

  49. Compression mode : Lossy

  50. Stream size : 1 021 MiB (10%)

  51. Title : English

  52. Language : English

  53. Default : Yes

  54. Forced : No

  55. Text #1

  56. ID : 3

  57. Format : PGS

  58. Muxing mode : zlib

  59. Codec ID : S_HDMV/PGS

  60. Codec ID/Info : Picture based subtitle format used on BDs/HD-DVDs

  61. Duration : 1 h 33 min

  62. Bit rate : 35.4 kb/s

  63. Count of elements : 1888

  64. Stream size : 23.5 MiB (0%)

  65. Title : CHS

  66. Language : Chinese

  67. Default : Yes

  68. Forced : No

  69. Text #2

  70. ID : 4

  71. Format : PGS

  72. Muxing mode : zlib

  73. Codec ID : S_HDMV/PGS

  74. Codec ID/Info : Picture based subtitle format used on BDs/HD-DVDs

  75. Duration : 1 h 34 min

  76. Bit rate : 29.0 kb/s

  77. Count of elements : 2597

  78. Stream size : 19.6 MiB (0%)

  79. Title : ENG

  80. Language : English

  81. Default : Yes

  82. Forced : No


复制代码


TAGS 动作 惊悚 /

磁力链:
  • magnet:?xt=urn:btih:38E06A58A1321388E1B4DB4A9F632A319CCF8698
上传的附件:
BT9527电影天堂 1、BT9527电影天堂提供的BT文件均来源于互联网抓取,只供网友学习交流、技术提升使用。
2、我们遵守BitTorrent点对点协议原则,任何版权问题请联系原资源发布商,我们不处理任何版权纠纷,谢谢!如有争议请联系邮箱:BT9527#hotmail.com(#换成@)
3、如果您发现某页面或地址有错误,请联系站长邮箱BT9527#hotmail.com(#换成@),我们会尽快处理。您的热心是对BT9527电影天堂最大的支持。
4、本站建议去正规影院观看电影以支持电影行业发展。
最新回复 (0)

你可以在 登录 or 注册 后,对此帖发表评论!

返回
发新帖