开棺[国语配音/中文字幕].Open.The.Coffin.2022.WEB-DL.1080p.H264.AAC-HomeWEB 19.42GB

版主小s 1月前 188

◎译 名 开棺 / Open The Coffin

◎年 代 2022

◎产 地 中国大陆

◎类 别 悬疑 / 惊悚

◎语 言 汉语普通话

◎上映日期 2022-05-02(中国大陆网络)

◎IMDb链接 https://www.imdb.com/title//

◎豆瓣评分 5.1/10 (3963人评价)

◎豆瓣链接 https://movie.douban.com/subject/35814526/

◎片 长 92分钟

◎编 剧 黄梦梦 Mengmeng Huang (id:1455011)

牛欢 Huan Niu (id:1417047)

◎演 员 韩栋 Dong Han (id:1315429)

姜超 Chao Jiang (id:1274652)

何中华 Zhonghua He (id:1314497)

佟磊 Lei Tong (id:1316504)

周晓鸥 Xiaoou Zhou (id:1316334)

◎简 介

消失三年的“鬼手”及其盗墓团伙重现江城,再次堪舆点穴下墓摸金。怎料,四名盗墓贼在开棺之时遭遇惊魂邪煞,逃离墓葬之后又接连惨死家中。古墓“尸毒”和命宫印堂之上的分魂针孔,成为留给警察沈春合仅有的查案线索。看似普通的盗墓案,瞬间扑朔迷离,疑点重重。四人是盗墓太多自食报应丧命,还是分魂针所指的换命转病,遭人蓄意谋杀?盗墓掌眼“鬼手”的神秘身份,更是牵出陈年谋杀警察旧案。沈春合联手法医韩冰,解刨验尸身、下墓取尸毒、棺材店中破邪术、纸扎店里缉真凶。

  1. ##### MediaInfo ######

  2. General

  3. Complete name : Open.The.Coffin.2022.WEB-DL.1080p.H264.AAC-HomeWEB.mp4

  4. Format : MPEG-4

  5. Format profile : Base Media

  6. Codec ID : isom (isom/iso2/avc1/mp41)

  7. File size : 19.4 GiB

  8. Duration : 1 h 32 min

  9. Overall bit rate mode : Variable

  10. Overall bit rate : 30.1 Mb/s

  11. Writing application : Lavf59.16.100

  12. Video

  13. ID : 2

  14. Format : AVC

  15. Format/Info : Advanced Video Codec

  16. Format profile : High@L4.1

  17. Format settings : CABAC / 2 Ref Frames

  18. Format settings, CABAC : Yes

  19. Format settings, Reference frames : 2 frames

  20. Format settings, GOP : M=1, N=30

  21. Codec ID : avc1

  22. Codec ID/Info : Advanced Video Coding

  23. Duration : 1 h 32 min

  24. Bit rate mode : Variable

  25. Bit rate : 29.7 Mb/s

  26. Maximum bit rate : 768 kb/s

  27. Width : 1 920 pixels

  28. Height : 818 pixels

  29. Display aspect ratio : 2.35:1

  30. Frame rate mode : Constant

  31. Frame rate : 25.000 FPS

  32. Color space : YUV

  33. Chroma subsampling : 4:2:0

  34. Bit depth : 8 bits

  35. Scan type : Progressive

  36. Bits/(Pixel*Frame) : 0.757

  37. Stream size : 19.2 GiB (99%)

  38. Title : Core Media Video

  39. Color range : Limited

  40. Color primaries : BT.709

  41. Transfer characteristics : BT.709

  42. Matrix coefficients : BT.709

  43. Codec configuration box : avcC

  44. Audio

  45. ID : 1

  46. Format : AAC LC

  47. Format/Info : Advanced Audio Codec Low Complexity

  48. Codec ID : mp4a-40-2

  49. Duration : 1 h 32 min

  50. Source duration : 1 h 32 min

  51. Source_Duration_LastFrame : -1 ms

  52. Bit rate mode : Constant

  53. Bit rate : 321 kb/s

  54. Channel(s) : 2 channels

  55. Channel layout : L R

  56. Sampling rate : 48.0 kHz

  57. Frame rate : 46.875 FPS (1024 SPF)

  58. Compression mode : Lossy

  59. Stream size : 213 MiB (1%)

  60. Source stream size : 213 MiB (1%)

  61. Title : Core Media Audio

  62. Default : Yes

  63. Alternate group : 1


复制代码


TAGS 惊悚 悬疑 /

磁力链:
  • magnet:?xt=urn:btih:81EA0957FE8F5A5017DD677524718EF188C3B0DE
上传的附件:
BT9527电影天堂 1、BT9527电影天堂提供的BT文件均来源于互联网抓取,只供网友学习交流、技术提升使用。
2、我们遵守BitTorrent点对点协议原则,任何版权问题请联系原资源发布商,我们不处理任何版权纠纷,谢谢!如有争议请联系邮箱:BT9527#hotmail.com(#换成@)
3、如果您发现某页面或地址有错误,请联系站长邮箱BT9527#hotmail.com(#换成@),我们会尽快处理。您的热心是对BT9527电影天堂最大的支持。
4、本站建议去正规影院观看电影以支持电影行业发展。
最新回复 (0)

你可以在 登录 or 注册 后,对此帖发表评论!

返回
发新帖