蛇蝎美人[简繁英字幕].Femme.Fatale.2002.BluRay.1080p.DTS-HD.MA5.1.x265.10bit-ALT 10.02GB

版主小s 1月前 374

◎译 名 蛇蝎美人 / 绝色偷天(港) / 双面惊悚(台)

◎片 名 Femme Fatale

◎年 代 2002

◎产 地 法国

◎类 别 爱情 / 惊悚 / 犯罪

◎语 言 英语 / 法语 / 西班牙语

◎上映日期 2002-04-30

◎IMDb链接 https://www.imdb.com/title/tt0280665/

◎豆瓣评分 7.0/10 (3492人评价)

◎豆瓣链接 https://movie.douban.com/subject/1307852/

◎片 长 114 分钟

◎导 演 布莱恩·德·帕尔玛 Brian De Palma (id:1012516)

◎编 剧 布莱恩·德·帕尔玛 Brian De Palma (id:1012516)

◎演 员 丽贝卡·罗梅恩 Rebecca Romijn (id:1040527)

安东尼奥·班德拉斯 Antonio Banderas (id:1022582)

彼德·考约特 Peter Coyote (id:1027864)

丽·拉丝姆森 Rie Rasmussen (id:1004903)

桑德里娜·博内尔 Sandrine Bonnaire (id:1018278)

乔·普雷斯蒂亚 Jo Prestia (id:1018470)

约翰·斯塔莫斯 John Stamos (id:1022567)

Yves Marmion Yves Marmion (id:1291047)

艾瑞克·艾伯纳尼 Eriq Ebouaney (id:1282967)

爱德华·蒙多特 Edouard Montoute (id:1037500)

Ugne Andrikonyte (id:1220655)

格雷格·亨利 Gregg Henry (id:1048224)

马修·格克齐 Matthew Géczy (id:1094566)

蒂埃里·弗雷蒙 Thierry Frémont (id:1087303)

伊娃·达尔兰 Eva Darlan (id:1085573)

大卫·贝利 David Belle (id:1049467)

雷吉斯·瓦格涅 Régis Wargnier (id:1004513)

塔拉克·阿玛尔 Tarak Ben Ammar (id:1019474)

Mark Lombardo Mark Lombardo (id:1007492)

坂本龙一 Ryuichi Sakamoto (id:1148641)

蒂埃里·阿博加斯特 Thierry Arbogast (id:1276547)

比尔·潘科 Bill Pankow (id:1293896)

比利·霍普金斯 Billy Hopkins (id:1054463)

弗朗索瓦·贝诺瓦-弗雷斯科 Fran?oise Beno?t-Fresco (id:1278370)

奥利维耶·贝里奥 Olivier Bériot (id:1279801)

Mauro Tamagnini Mauro Tamagnini (id:1298871)

妮娜·斯玛兹 Nena Smarz (id:1297819)

Jean-Luc Russier Jean-Luc Russier (id:1296357)

Olivier Seyfrid (id:1219884)

杰罗姆·波伦斯坦 Jerome Borenstein (id:1055644)

艾米莉·舍皮代尔 Emilie Cherpitel (id:1203824)

弗兰克·韦斯蒂 Franck Vestiel (id:1014759)

◎简 介

劳拉?艾什(丽贝卡?罗梅恩 饰)与同党瑞西、威克斯在一个电影首映式上,出尽法宝要偷取一条佩戴在某位明星身上,价值千万的钻石项链。劳拉在神不知鬼不觉之间,把仿品成功与真品掉包。同党打算把女明星杀掉,劳拉出手阻止。两人较量时,劳拉把同党一同杀死了。

劳拉害怕自己的身份被识破,处处躲藏,直到她得到了另一个身份。一个与她相貌惊人相似的女人莉莉自杀了,当她目睹这一切之际,她决定盗用莉莉的身份。借助新的身份她的新生活开始了,她也成为了他人的妻子,感受到了家庭的温暖。

尼古拉斯(安东尼奥?班德拉斯 饰)的职业是记者,自他认识劳拉后,他对劳拉鲜为人知的过去非常感兴趣,企图要揭开她的底细,也因此迫使劳拉要对自己的身份作出抉择……

  1. ##### MediaInfo ######

  2. General

  3. Unique ID : 125434771274540506738332234628009473536 (0x5E5DDBB36BD35617024F91578B1EB600)

  4. Complete name : Femme.Fatale.2002.BluRay.1080p.DTS-HD.MA5.1.x265.10bit-ALT.mkv

  5. Format : Matroska

  6. Format version : Version 4

  7. File size : 10.0 GiB

  8. Duration : 1 h 54 min

  9. Overall bit rate mode : Variable

  10. Overall bit rate : 12.5 Mb/s

  11. Encoded date : UTC 2022-05-27 00:26:13

  12. Writing application : mkvmerge v49.0.0 ('Sick Of Losing Soulmates') 64-bit

  13. Writing library : libebml v1.4.0 + libmatroska v1.6.1

  14. Video

  15. ID : 1

  16. Format : HEVC

  17. Format/Info : High Efficiency Video Coding

  18. Format profile : Main 10@L5.1@High

  19. Codec ID : V_MPEGH/ISO/HEVC

  20. Duration : 1 h 54 min

  21. Bit rate : 9 914 kb/s

  22. Width : 1 920 pixels

  23. Height : 1 038 pixels

  24. Display aspect ratio : 1.85:1

  25. Frame rate mode : Constant

  26. Frame rate : 23.976 (24000/1001/53354) FPS

  27. Color space : YUV

  28. Chroma subsampling : 4:2:0

  29. Bit depth : 10 bits

  30. Bits/(Pixel*Frame) : 0.207

  31. Stream size : 7.93 GiB (79%)

  32. Title : HEVC, x265Main10@L5.1@High, 24/1.001 fps @ 9913 kbps

  33. Writing library : x265 3.5+36-1f2c8da77:[Windows][GCC 11.2.0][64 bit] 10bit

  34. Encoding settings : cpuid=533541111039 / frame-threads=4 / numa-pools=16 / wpp / no-pmode / no-pme / no-psnr / no-ssim / log-level=2 / input-csp=1 / input-res=1920x1038 / interlace=0 / total-frames=164791 / level-idc=51 / high-tier=1 / uhd-bd=0 / ref=5 / no-allow-non-conformance / no-repeat-headers / annexb / no-aud / no-eob / no-eos / no-hrd / info / hash=0 / no-temporal-layers / open-gop / min-keyint=24 / keyint=240 / gop-lookahead=0 / bframes=6 / b-adapt=2 / b-pyramid / bframe-bias=0 / rc-lookahead=40 / lookahead-slices=0 / NTMzNTQ=uuDQuD2mJt9fsCf / scenecut=40 / no-hist-scenecut / radl=0 / no-splice / no-intra-refresh / ctu=32 / min-cu-size=8 / no-rect / no-amp / max-tu-size=32 / tu-inter-depth=3 / tu-intra-depth=3 / limit-tu=4 / rdoq-level=2 / dynamic-rd=0.00 / no-ssim-rd / signhide / no-tskip / nr-intra=0 / nr-inter=0 / no-constrained-intra / no-strong-intra-smoothing / max-merge=4 / limit-refs=1 / limit-modes / me=3 / subme=4 / merange=25 / temporal-mvp / no-frame-dup / no-hme / weightp / weightb / no-analyze-src-pics / deblock=-3:-3 / no-sao / no-sao-non-deblock / rd=6 / selective-sao=0 / no-early-skip / rskip / no-fast-intra / no-tskip-fast / no-cu-lossless / b-intra / no-splitrd-skip / rdpenalty=0 / psy-rd=2.00 / psy-rdoq=1.00 / no-rd-refine / no-lossless / cbqpoffs=-2 / crqpoffs=-2 / rc=crf / crf=18.5 / qcomp=0.65 / qpstep=4 / stats-write=0 / stats-read=0 / vbv-maxrate=80000 / vbv-bufsize=80000 / vbv-init=0.9 / min-vbv-fullness=50.0 / max-vbv-fullness=80.0 / crf-max=0.0 / crf-min=0.0 / ipratio=1.40 / pbratio=1.30 / aq-mode=2 / aq-strength=0.85 / cutree / zone-count=0 / no-strict-cbr / qg-size=32 / no-rc-grain / qpmax=69 / qpmin=0 / no-const-vbv / sar=1 / overscan=0 / videoformat=5 / range=0 / colorprim=1 / transfer=1 / colormatrix=1 / chromaloc=0 / display-window=0 / cll=0,0 / min-luma=0 / max-luma=1023 / log2-max-poc-lsb=8 / vui-timing-info / vui-hrd-info / slices=1 / no-opt-qp-pps / no-opt-ref-list-length-pps / no-multi-pass-opt-rps / scenecut-bias=0.05 / hist-threshold=0.03 / no-opt-cu-delta-qp / no-aq-motion / no-hdr10 / no-hdr10-opt / no-dhdr10-opt / no-idr-recovery-sei / analysis-reuse-level=0 / analysis-save-reuse-level=0 / analysis-load-reuse-level=0 / scale-factor=0 / refine-intra=0 / refine-inter=0 / refine-mv=1 / refine-ctu-distortion=0 / no-limit-sao / ctu-info=0 / no-lowpass-dct / refine-analysis-type=0 / copy-pic=1 / max-ausize-factor=1.0 / no-dynamic-refine / no-single-sei / no-hevc-aq / no-svt / no-field / qp-adaptation-range=1.00 / scenecut-aware-qp=0conformance-window-offsets / right=0 / bottom=0 / NTMzNTQ= / decoder-max-rate=0 / no-vbv-live-multi-pass

  35. Language : English

  36. Default : Yes

  37. Forced : No

  38. Color range : Limited

  39. Color primaries : BT.709

  40. Transfer characteristics : BT.709

  41. Matrix coefficients : BT.709

  42. Audio

  43. ID : 2

  44. Format : DTS XLL

  45. Format/Info : Digital Theater Systems

  46. Commercial name : DTS-HD Master Audio

  47. Codec ID : A_DTS

  48. Duration : 1 h 54 min

  49. Bit rate mode : Variable

  50. Bit rate : 2 540 kb/s

  51. Channel(s) : 6 channels

  52. Channel layout : C L R Ls Rs LFE

  53. Sampling rate : 48.0 kHz

  54. Frame rate : 93.750 FPS (512 SPF)

  55. Bit depth : 24 bits

  56. Compression mode : Lossless

  57. Stream size : 2.03 GiB (20%)

  58. Title : English DTS-HD Master Audio 5.1 @ 2540 kbps

  59. Language : English

  60. Default : Yes

  61. Forced : No

  62. Text #1

  63. ID : 3

  64. Format : PGS

  65. Codec ID : S_HDMV/PGS

  66. Codec ID/Info : Picture based subtitle format used on BDs/HD-DVDs

  67. Duration : 1 h 50 min

  68. Bit rate : 26.3 kb/s

  69. Count of elements : 2127

  70. Stream size : 20.7 MiB (0%)

  71. Title : Eng/SUP

  72. Language : English

  73. Default : No

  74. Forced : No

  75. Text #2

  76. ID : 4

  77. Format : PGS

  78. Codec ID : S_HDMV/PGS

  79. Codec ID/Info : Picture based subtitle format used on BDs/HD-DVDs

  80. Duration : 1 h 49 min

  81. Bit rate : 18.7 kb/s

  82. Count of elements : 1824

  83. Stream size : 14.7 MiB (0%)

  84. Title : Chs/SUP 简体

  85. Language : Chinese

  86. Default : Yes

  87. Forced : No

  88. Text #3

  89. ID : 5

  90. Format : PGS

  91. Codec ID : S_HDMV/PGS

  92. Codec ID/Info : Picture based subtitle format used on BDs/HD-DVDs

  93. Duration : 1 h 49 min

  94. Bit rate : 19.3 kb/s

  95. Count of elements : 1824

  96. Stream size : 15.2 MiB (0%)

  97. Title : Cht/SUP 繁体

  98. Language : Chinese

  99. Default : No

  100. Forced : No

  101. Menu

  102. 00:00:00.000 : en:第 01 章

  103. 00:08:55.994 : en:第 02 章

  104. 00:17:31.300 : en:第 03 章

  105. 00:27:33.110 : en:第 04 章

  106. 00:39:05.593 : en:第 05 章

  107. 00:46:04.303 : en:第 06 章

  108. 00:52:49.124 : en:第 07 章

  109. 01:01:21.511 : en:第 08 章

  110. 01:10:45.324 : en:第 09 章

  111. 01:19:43.153 : en:第 10 章

  112. 01:29:32.367 : en:第 11 章

  113. 01:41:45.808 : en:第 12 章


复制代码


TAGS 惊悚 犯罪 爱情 /

磁力链:
  • magnet:?xt=urn:btih:79B1E86A128CB2A684A5055DD55F6946E15DA51F
上传的附件:
BT9527电影天堂 1、BT9527电影天堂提供的BT文件均来源于互联网抓取,只供网友学习交流、技术提升使用。
2、我们遵守BitTorrent点对点协议原则,任何版权问题请联系原资源发布商,我们不处理任何版权纠纷,谢谢!如有争议请联系邮箱:BT9527#hotmail.com(#换成@)
3、如果您发现某页面或地址有错误,请联系站长邮箱BT9527#hotmail.com(#换成@),我们会尽快处理。您的热心是对BT9527电影天堂最大的支持。
4、本站建议去正规影院观看电影以支持电影行业发展。
最新回复 (0)

你可以在 登录 or 注册 后,对此帖发表评论!

返回
发新帖