致命少女姬[国语配音/中文字幕].Fatal.Girl.2022.WEB-DL.1080p.H264.AAC-HomeWEB 0.78GB

版主小s 1月前 266

◎译 名 致命少女姬 / 致命少女

◎年 代 2022

◎产 地 中国大陆

◎类 别 剧情 / 动作 / 科幻 / 悬疑

◎语 言 汉语普通话

◎上映日期 2022-05-25(中国大陆网络)

◎IMDb链接 https://www.imdb.com/title//

◎豆瓣链接 https://movie.douban.com/subject/35510778/

◎演 员 梁龙 Long Liang (id:1364246)

叶璇 Michelle Ye (id:1005537)

张祎曈 Yitong Zhang (id:1418982)

陆思恒 Louis (id:1414629)

胡浩帆 Hubert.Hu (id:1409428)

◎简 介

电影讲述了未来世界,人工智能高速发展,程非(梁龙 饰)为牟取暴利研制激发异能人的芯片,导致千鹤(张祎曈 饰)母亲牺牲。逃出生天的千鹤为给母亲复仇,以身涉险对抗程非一众恶势力,危急关头激发身体异能,发现了隐藏十年的秘密.....

  1. ##### MediaInfo ######

  2. General

  3. Complete name : Fatal.Girl.2022.WEB-DL.1080p.H264.AAC-HomeWEB.mp4

  4. Format : MPEG-4

  5. Format profile : Base Media

  6. Codec ID : isom (isom/iso2/avc1/mp41)

  7. File size : 802 MiB

  8. Duration : 1 h 24 min

  9. Overall bit rate : 1 332 kb/s

  10. Writing application : Lavf58.30.100

  11. Video

  12. ID : 1

  13. Format : AVC

  14. Format/Info : Advanced Video Codec

  15. Format profile : High@L4

  16. Format settings : CABAC / 3 Ref Frames

  17. Format settings, CABAC : Yes

  18. Format settings, Reference frames : 3 frames

  19. Codec ID : avc1

  20. Codec ID/Info : Advanced Video Coding

  21. Duration : 1 h 24 min

  22. Bit rate : 1 136 kb/s

  23. Width : 1 920 pixels

  24. Height : 808 pixels

  25. Display aspect ratio : 2.40:1

  26. Frame rate mode : Constant

  27. Frame rate : 25.000 FPS

  28. Color space : YUV

  29. Chroma subsampling : 4:2:0

  30. Bit depth : 8 bits

  31. Scan type : Progressive

  32. Bits/(Pixel*Frame) : 0.029

  33. Stream size : 684 MiB (85%)

  34. Color range : Limited

  35. Color primaries : BT.709

  36. Transfer characteristics : BT.709

  37. Matrix coefficients : BT.709

  38. Codec configuration box : avcC

  39. Audio

  40. ID : 2

  41. Format : AAC LC

  42. Format/Info : Advanced Audio Codec Low Complexity

  43. Codec ID : mp4a-40-2

  44. Duration : 1 h 24 min

  45. Bit rate mode : Constant

  46. Bit rate : 192 kb/s

  47. Channel(s) : 2 channels

  48. Channel layout : L R

  49. Sampling rate : 44.1 kHz

  50. Frame rate : 43.066 FPS (1024 SPF)

  51. Compression mode : Lossy

  52. Stream size : 114 MiB (14%)

  53. Default : Yes

  54. Alternate group : 1


复制代码


TAGS 动作 剧情 悬疑 科幻 /

磁力链:
  • magnet:?xt=urn:btih:EEB93814631B5C5995184A7F0C53829725F51D4E
上传的附件:
BT9527电影天堂 1、BT9527电影天堂提供的BT文件均来源于互联网抓取,只供网友学习交流、技术提升使用。
2、我们遵守BitTorrent点对点协议原则,任何版权问题请联系原资源发布商,我们不处理任何版权纠纷,谢谢!如有争议请联系邮箱:BT9527#hotmail.com(#换成@)
3、如果您发现某页面或地址有错误,请联系站长邮箱BT9527#hotmail.com(#换成@),我们会尽快处理。您的热心是对BT9527电影天堂最大的支持。
4、本站建议去正规影院观看电影以支持电影行业发展。
最新回复 (0)

你可以在 登录 or 注册 后,对此帖发表评论!

返回
发新帖