黑眼镜[中文字幕].Dark.Glasses.2022.BluRay.1080p.DTS-HDMA.5.1.x265.10bit-CTRLHD 4.62GB

版主小s 1月前 144

黑眼镜[中文字幕].Dark.Glasses.2022.BluRay.1080p.DTS-HDMA.5.1.x265.10bit-CTRLHD 4.62GB

◎译  名 黑眼镜 / 墨镜 / Black Glasses / 黑玻璃
◎片  名 Occhiali Neri
◎年  代 2022
◎产  地 意大利 / 法国
◎类  别 悬疑 / 惊悚
◎语  言 意大利语
◎上映日期 2022-02-11(柏林电影节)
◎IMDb链接 https://www.imdb.com/title/tt10935560/
◎豆瓣链接 https://movie.douban.com/subject/34918902/
◎片  长 90分钟
◎导  演 达里奥·阿基多 Dario Argento (id:1049726)
◎编  剧 达里奥·阿基多 Dario Argento (id:1049726)
       弗兰科·费里尼 Franco Ferrini (id:1017013)
◎演  员 艾莎·阿基多 Asia Argento (id:1049556)
       伊莱尼·帕斯托雷利 Ilenia Pastorelli (id:1358536)
       葆拉·桑博 Paola Sambo (id:1418536)
       斯塔西·马汀 Stacy Martin (id:1334729)

◎简  介
  讲述一个中国女孩带着小孩从罗马逃到拉齐奥乡村的冒险。演员阵容包括他的女儿艾莎·阿基多等。

  1. ##### MediaInfo ######
  2. General
  3. Unique ID                                : 192055503774825025781625828591425287864 (0x907C8B68F7C0156E87C6328D34E3F6B8)
  4. Complete name                            : Dark.Glasses.2022.BluRay.1080p.DTS-HDMA.5.1.x265.10bit-CTRLHD.mkv
  5. Format                                   : Matroska
  6. Format version                           : Version 4
  7. File size                                : 4.61 GiB
  8. Duration                                 : 1 h 25 min
  9. Overall bit rate mode                    : Variable
  10. Overall bit rate                         : 7 720 kb/s
  11. Encoded date                             : UTC 2022-05-26 03:09:21
  12. Writing application                      : mkvmerge v64.0.0 ('Willows') 64-bit
  13. Writing library                          : libebml v1.4.2 + libmatroska v1.6.4
  14. Video
  15. ID                                       : 1
  16. Format                                   : HEVC
  17. Format/Info                              : High Efficiency Video Coding
  18. Format profile                           : Main 10@L5.1@High
  19. Codec ID                                 : V_MPEGH/ISO/HEVC
  20. Duration                                 : 1 h 25 min
  21. Bit rate                                 : 5 561 kb/s
  22. Width                                    : 1 920 pixels
  23. Height                                   : 800 pixels
  24. Display aspect ratio                     : 2.40:1
  25. Frame rate mode                          : Constant
  26. Frame rate                               : 24.000 FPS
  27. Color space                              : YUV
  28. Chroma subsampling                       : 4:2:0
  29. Bit depth                                : 10 bits
  30. Bits/(Pixel*Frame)                       : 0.151
  31. Stream size                              : 3.32 GiB (72%)
  32. Writing library                          : x265 3.5+20-17839cc0d:[Windows][MSVC 1930][64 bit] 10bit
  33. Encoding settings                        : cpuid=533541111039 / frame-threads=4 / numa-pools=24 / wpp / no-pmode / no-pme / no-psnr / no-ssim / log-level=2 / input-csp=1 / input-res=1920x800 / interlace=0 / total-frames=0 / level-idc=51 / high-tier=1 / uhd-bd=0 / ref=6 / no-allow-non-conformance / repeat-headers / annexb / no-aud / no-eob / no-eos / no-hrd / info / hash=0 / no-temporal-layers / no-open-gop / min-keyint=24 / keyint=250 / gop-lookahead=0 / bframes=8 / b-adapt=2 / b-pyramid / bframe-bias=0 / rc-lookahead=24 / lookahead-slices=5 / NTMzNTQ=uuDQuD2mJt9fsCf / scenecut=40 / no-hist-scenecut / radl=0 / no-splice / no-intra-refresh / ctu=64 / min-cu-size=8 / no-rect / no-amp / max-tu-size=32 / tu-inter-depth=1 / tu-intra-depth=1 / limit-tu=0 / rdoq-level=0 / dynamic-rd=0.00 / no-ssim-rd / signhide / no-tskip / nr-intra=0 / nr-inter=0 / no-constrained-intra / no-strong-intra-smoothing / max-merge=3 / limit-refs=1 / no-limit-modes / me=2 / subme=7 / merange=48 / temporal-mvp / no-frame-dup / no-hme / weightp / weightb / no-analyze-src-pics / deblock=0:0 / sao / no-sao-non-deblock / rd=4 / selective-sao=4 / early-skip / rskip / no-fast-intra / no-tskip-fast / no-cu-lossless / b-intra / no-splitrd-skip / rdpenalty=0 / psy-rd=2.00 / psy-rdoq=0.00 / no-rd-refine / no-lossless / cbqpoffs=0 / crqpoffs=0 / rc=crf / crf=14.0 / qcomp=0.60 / qpstep=4 / stats-write=0 / stats-read=0 / vbv-maxrate=160000 / vbv-bufsize=160000 / vbv-init=0.9 / min-vbv-fullness=50.0 / max-vbv-fullness=80.0 / crf-max=0.0 / crf-min=0.0 / ipratio=1.40 / pbratio=1.30 / aq-mode=3 / aq-strength=1.00 / cutree / zone-count=0 / no-strict-cbr / qg-size=32 / no-rc-grain / qpmax=69 / qpmin=0 / no-const-vbv / sar=0 / overscan=0 / videoformat=5 / range=0 / colorprim=2 / transfer=2 / colormatrix=2 / chromaloc=0 / display-window=0 / cll=0,0 / min-luma=0 / max-luma=1023 / log2-max-poc-lsb=8 / vui-timing-info / vui-hrd-info / slices=1 / no-opt-qp-pps / no-opt-ref-list-length-pps / no-multi-pass-opt-rps / scenecut-bias=0.05 / hist-threshold=0.03 / no-opt-cu-delta-qp / aq-motion / no-hdr10 / no-hdr10-opt / no-dhdr10-opt / no-idr-recovery-sei / analysis-reuse-level=0 / analysis-save-reuse-level=0 / analysis-load-reuse-level=0 / scale-factor=0 / refine-intra=0 / refine-inter=0 / refine-mv=1 / refine-ctu-distortion=0 / no-limit-sao / ctu-info=0 / no-lowpass-dct / refine-analysis-type=0 / copy-pic=1 / max-ausize-factor=1.0 / no-dynamic-refine / no-single-sei / no-hevc-aq / no-svt / no-field / qp-adaptation-range=1.00 / scenecut-aware-qp=0conformance-window-offsets / right=0 / bottom=0 / NTMzNTQ= / decoder-max-rate=0 / no-vbv-live-multi-pass
  34. Language                                 : Italian
  35. Default                                  : Yes
  36. Forced                                   : No
  37. Audio
  38. ID                                       : 2
  39. Format                                   : DTS XLL
  40. Format/Info                              : Digital Theater Systems
  41. Commercial name                          : DTS-HD Master Audio
  42. Codec ID                                 : A_DTS
  43. Duration                                 : 1 h 25 min
  44. Bit rate mode                            : Variable
  45. Bit rate                                 : 2 137 kb/s
  46. Channel(s)                               : 6 channels
  47. Channel layout                           : C L R Ls Rs LFE
  48. Sampling rate                            : 48.0 kHz
  49. Frame rate                               : 93.750 FPS (512 SPF)
  50. Bit depth                                : 16 bits
  51. Compression mode                         : Lossless
  52. Stream size                              : 1.28 GiB (28%)
  53. Language                                 : Italian
  54. Default                                  : Yes
  55. Forced                                   : No
  56. Text #1
  57. ID                                       : 3
  58. Format                                   : PGS
  59. Muxing mode                              : zlib
  60. Codec ID                                 : S_HDMV/PGS
  61. Codec ID/Info                            : Picture based subtitle format used on BDs/HD-DVDs
  62. Duration                                 : 1 h 22 min
  63. Bit rate                                 : 14.9 kb/s
  64. Count of elements                        : 1508
  65. Stream size                              : 8.78 MiB (0%)
  66. Language                                 : Chinese
  67. Default                                  : Yes
  68. Forced                                   : No
  69. Text #2
  70. ID                                       : 4
  71. Format                                   : PGS
  72. Muxing mode                              : zlib
  73. Codec ID                                 : S_HDMV/PGS
  74. Codec ID/Info                            : Picture based subtitle format used on BDs/HD-DVDs
  75. Duration                                 : 1 h 22 min
  76. Bit rate                                 : 23.6 kb/s
  77. Count of elements                        : 1508
  78. Stream size                              : 13.9 MiB (0%)
  79. Language                                 : Chinese
  80. Default                                  : Yes
  81. Forced                                   : No
  82. Menu
  83. 00:00:00.000                             : it:Chapter 01
  84. 00:11:28.250                             : it:Chapter 02
  85. 00:18:13.750                             : it:Chapter 03
  86. 00:27:40.917                             : it:Chapter 04
  87. 00:40:13.167                             : it:Chapter 05
  88. 00:51:57.750                             : it:Chapter 06
  89. 00:59:16.417                             : it:Chapter 07
  90. 01:05:51.958                             : it:Chapter 08
  91. 01:19:15.958                             : it:Chapter 09
复制代码




TAGS 惊悚 悬疑 /

磁力链:
  • magnet:?xt=urn:btih:B2A2C2ED2AFD8675C397E63B2AAE602B301355B5
上传的附件:
BT9527电影天堂 1、BT9527电影天堂提供的BT文件均来源于互联网抓取,只供网友学习交流、技术提升使用。
2、我们遵守BitTorrent点对点协议原则,任何版权问题请联系原资源发布商,我们不处理任何版权纠纷,谢谢!如有争议请联系邮箱:BT9527#hotmail.com(#换成@)
3、如果您发现某页面或地址有错误,请联系站长邮箱BT9527#hotmail.com(#换成@),我们会尽快处理。您的热心是对BT9527电影天堂最大的支持。
4、本站建议去正规影院观看电影以支持电影行业发展。
最新回复 (0)

你可以在 登录 or 注册 后,对此帖发表评论!

返回