铁面无私[中文字幕].The.Untouchables.1987.2160p.UHD.BluRay.x265.10bit.HDR.DTS-HD.MA.TrueHD.7.1.Atmos-SWTYBLZ 33.86GB

版主小s 1月前 98

◎译 名 铁面无私 / 义胆雄心(港) / 不可触犯

◎片 名 The Untouchables

◎年 代 1987

◎产 地 美国

◎类 别 剧情 / 惊悚 / 历史 / 犯罪

◎语 言 英语

◎上映日期 1987-06-02(纽约首映)

◎IMDb链接 https://www.imdb.com/title/tt0094226/

◎豆瓣评分 7.7/10 (18200人评价)

◎豆瓣链接 https://movie.douban.com/subject/1292532/

◎片 长 119分钟

◎导 演 布莱恩·德·帕尔玛 Brian De Palma (id:1012516)

◎编 剧 大卫·马梅 David Mamet (id:1036481)

Oscar Fraley Oscar Fraley (id:1023960)

Eliot Ness Eliot Ness (id:1000881)

◎演 员 凯文·科斯特纳 Kevin Costner (id:1016671)

肖恩·康纳利 Sean Connery (id:1018982)

查尔斯·马丁·史密斯 Charles Martin Smith (id:1041194)

安迪·加西亚 Andy Garcia (id:1002695)

罗伯特·德尼罗 Robert De Niro (id:1054445)

理查德·布拉德福德 Richard Bradford (id:1075126)

杰克·基欧 Jack Kehoe (id:1103670)

布拉德·苏利文 Brad Sullivan (id:1041292)

比利·德拉戈 Billy Drago (id:1049756)

派翠西娅·克拉克森 Patricia Clarkson (id:1013791)

维托·达布罗西奥 Vito D'Ambrosio (id:1072426)

Steven Goldstein Steven Goldstein (id:1094032)

唐·哈维 Don Harvey (id:1345203)

德尔克洛斯 Del Close (id:1077508)

迈克·巴卡雷纳 Mike Bacarella (id:1432840)

拉里·布兰登伯格 Larry Brandenburg (id:1074035)

切尔西·罗斯 Chelcie Ross (id:1041208)

Sam Smiley Sam Smiley (id:1154025)

Jennifer Anglin Jennifer Anglin (id:1277282)

Vince Viverito Vince Viverito (id:1166926)

Joe Greco Joe Greco (id:1091631)

Robert Miranda Robert Miranda (id:1350584)

约翰·巴罗曼 John Barrowman (id:1031887)

Stephen Burrows Stephen Burrows (id:1279687)

Ernest Capponi Ernest Capponi (id:1069858)

埃迪·多诺 Eddy Donno (id:1282590)

Jack Fitzstephens Jack Fitzstephens (id:1283818)

克里夫顿·詹姆斯 Clifton James (id:1019158)

Matt Johnston Matt Johnston (id:1287839)

阿特·林森 Art Linson (id:1290103)

恩尼奥·莫里康内 Ennio Morricone (id:1044688)

史蒂芬·H·布鲁姆 Stephen H. Burum (id:1037457)

比尔·潘科 Bill Pankow (id:1293896)

威廉·A·艾略特 William A. Elliott (id:1283133)

哈尔·高斯曼 Hal Gausman (id:1284639)

玛丽莲·万斯 Marilyn Vance (id:1276618)

乔治·阿玛尼 Giorgio Armani (id:1009850)

迈克尔·汉考克 Michael Hancock (id:1285947)

Glen Trotiner Glen Trotiner (id:1299553)

◎简 介

30年代的芝加哥充满了混乱,黑道横行官商勾结,其中,要数掌握着私酒市场命脉的黑帮老大卡彭(罗伯特·德尼罗 Robert De Niro 饰)的势力最为强大。即使在这样黑暗的环境中,联邦探员纳斯(凯文·科斯特纳 Kevin Costner 饰)也依然怀抱着惩奸除恶的理想, 可是很快,现实便教会了他,在这个世界里,谁才是老大。

在老警探马龙(肖恩·康纳利 Sean Connery 饰)的帮助下,纳斯重拾了自信,他组织了一个专案小组,专门调查和打击卡彭的犯罪事业。在纳斯的努力下,小组的行动初显成效,可随之而来的,就是来自卡彭的威胁和迫害。组员被杀,马龙受伤,这一切的一切都不能使纳斯消沉,反而更加坚定了他除掉卡彭的决心,一场激烈的较量在正义和邪恶之间拉开了帷幕。

◎获奖情况 (共4项)

第60届奥斯卡金像奖 (1988)

最佳男配角

└──肖恩·康纳利 (id:1018982)

最佳艺术指导(提名)

最佳服装设计(提名)

└──玛丽莲·万斯 (id:1276618)

最佳原创配乐(提名)

└──恩尼奥·莫里康内 (id:1044688)

  1. Video

  2. ID : 1

  3. Format : HEVC

  4. Format/Info : High Efficiency Video Coding

  5. Format profile : Main 10@L5.1@High

  6. HDR format : SMPTE ST 2086, HDR10 compatible

  7. Codec ID : V_MPEGH/ISO/HEVC

  8. Duration : 1 h 59 min

  9. Bit rate : 30.9 Mb/s

  10. Width : 3 840 pixels

  11. Height : 1 600 pixels

  12. Display aspect ratio : 2.40:1

  13. Frame rate mode : Constant

  14. Frame rate : 23.976 (24000/1001/53354) FPS

  15. Color space : YUV

  16. Chroma subsampling : 4:2:0 (Type 2)

  17. Bit depth : 10 bits

  18. Bits/(Pixel*Frame) : 0.210

  19. Stream size : 25.8 GiB (76%)

  20. Writing library : x265 3.0_Au+10-74a8672ea4f7:[Windows][GCC 8.2.1][64 bit] 10bit

  21. Encoding settings : cpuid=533541111039 / frame-threads=6 / numa-pools=40 / wpp / no-pmode / no-pme / no-psnr / no-ssim / log-level=2 / input-csp=1 / input-res=3840x1600 / interlace=0 / total-frames=0 / level-idc=51 / high-tier=1 / uhd-bd=0 / ref=3 / no-allow-non-conformance / repeat-headers / annexb / aud / hrd / info / hash=0 / no-temporal-layers / no-open-gop / min-keyint=1 / keyint=24 / gop-lookahead=0 / bframes=4 / b-adapt=2 / b-pyramid / bframe-bias=0 / rc-lookahead=25 / lookahead-slices=4 / NTMzNTQ=uuDQuD2mJt9fsCf / scenecut=40 / radl=0 / no-splice / no-intra-refresh / ctu=64 / min-cu-size=8 / no-rect / no-amp / max-tu-size=32 / tu-inter-depth=1 / tu-intra-depth=1 / limit-tu=0 / rdoq-level=0 / dynamic-rd=0.00 / no-ssim-rd / signhide / no-tskip / nr-intra=0 / nr-inter=0 / no-constrained-intra / strong-intra-smoothing / max-merge=2 / limit-refs=3 / no-limit-modes / me=1 / subme=2 / merange=57 / temporal-mvp / weightp / no-weightb / no-analyze-src-pics / deblock=0:0 / no-sao / no-sao-non-deblock / rd=3 / no-early-skip / rskip / no-fast-intra / no-tskip-fast / no-cu-lossless / no-b-intra / no-splitrd-skip / rdpenalty=0 / psy-rd=2.00 / psy-rdoq=0.00 / no-rd-refine / no-lossless / cbqpoffs=0 / crqpoffs=0 / rc=crf / crf=16.0 / qcomp=0.60 / qpstep=4 / stats-write=0 / stats-read=0 / vbv-maxrate=160000 / vbv-bufsize=160000 / vbv-init=0.9 / crf-max=0.0 / crf-min=0.0 / ipratio=1.40 / pbratio=1.30 / aq-mode=1 / aq-strength=1.00 / cutree / zone-count=0 / no-strict-cbr / qg-size=32 / no-rc-grain / qpmax=69 / qpmin=0 / no-const-vbv / sar=1 / overscan=0 / videoformat=5 / range=0 / colorprim=9 / transfer=16 / colormatrix=9 / chromaloc=1 / chromaloc-top=2 / chromaloc-bottom=2 / display-window=0 / master-display=G(13250,34500)B(7500,3000)R(34000,16000)WP(15635,16450)L(10000000,01) / max-cll=1000,573 / min-luma=0 / max-luma=1023 / log2-max-poc-lsb=8 / vui-timing-info / vui-hrd-info / slices=1 / opt-qp-pps / opt-ref-list-length-pps / no-multi-pass-opt-rps / scenecut-bias=0.05 / no-opt-cu-delta-qp / no-aq-motion / hdr / hdr-opt / no-dhdr10-opt / no-idr-recovery-sei / analysis-reuse-level=5 / scale-factor=0 / refine-intra=0 / refine-inter=0 / refine-mv=0 / refine-ctu-distortion=0 / no-limit-sao / ctu-info=0 / no-lowpass-dct / refine-analysis-type=0 / copy-pic=1 / max-ausize-factor=1.0 / no-dynamic-refine / no-single-sei / no-hevc-aq / no-svt / qp-adaptation-range=1.00

  22. Default : Yes

  23. Forced : No

  24. Color range : Limited

  25. Color primaries : BT.2020

  26. Transfer characteristics : PQ

  27. Matrix coefficients : BT.2020 non-constant

  28. Mastering display color primaries : Display P3

  29. Mastering display luminance : min: 0.0001 cd/m2, max: 1000 cd/m2

  30. Maximum Content Light Level : 1000 cd/m2

  31. Maximum Frame-Average Light Level : 573 cd/m2


  32. Audio #1

  33. ID : 2

  34. ID in the original source medium : 4352 (0x1100)

  35. Format : MLP FBA 16-ch

  36. Format/Info : Meridian Lossless Packing FBA with 16-channel presentation

  37. Commercial name : Dolby TrueHD with Dolby Atmos

  38. Codec ID : A_TRUEHD

  39. Duration : 1 h 59 min

  40. Bit rate mode : Variable

  41. Bit rate : 4 339 kb/s

  42. Maximum bit rate : 6 639 kb/s

  43. Channel(s) : 8 channels

  44. Channel layout : L R C LFE Ls Rs Lb Rb

  45. Sampling rate : 48.0 kHz

  46. Frame rate : 1 200.000 FPS (40 SPF)

  47. Bit depth : 24 bits

  48. Compression mode : Lossless

  49. Stream size : 3.62 GiB (11%)

  50. Title : TrueHD 7.1 Atmos

  51. Language : English

  52. Default : Yes

  53. Forced : No

  54. Original source medium : Blu-ray

  55. Number of dynamic objects : 11

  56. Bed channel count : 1 channel

  57. Bed channel configuration : LFE


  58. Audio #2

  59. ID : 3

  60. Format : DTS XLL

  61. Format/Info : Digital Theater Systems

  62. Commercial name : DTS-HD Master Audio

  63. Codec ID : A_DTS

  64. Duration : 1 h 59 min

  65. Bit rate mode : Variable

  66. Bit rate : 4 158 kb/s

  67. Channel(s) : 8 channels

  68. Channel layout : C L R LFE Lb Rb Lss Rss

  69. Sampling rate : 48.0 kHz

  70. Frame rate : 93.750 FPS (512 SPF)

  71. Bit depth : 24 bits

  72. Compression mode : Lossless

  73. Stream size : 3.47 GiB (10%)

  74. Title : DTS-HD MA 7.1

  75. Language : English

  76. Default : No

  77. Forced : No


  78. Audio #3

  79. ID : 4

  80. ID in the original source medium : 4352 (0x1100)

  81. Format : AC-3

  82. Format/Info : Audio Coding 3

  83. Commercial name : Dolby Digital

  84. Format settings : Dolby Surround EX

  85. Codec ID : A_AC3

  86. Duration : 1 h 59 min

  87. Bit rate mode : Constant

  88. Bit rate : 640 kb/s

  89. Channel(s) : 6 channels

  90. Channel layout : L R C LFE Ls Rs

  91. Sampling rate : 48.0 kHz

  92. Frame rate : 31.250 FPS (1536 SPF)

  93. Compression mode : Lossy

  94. Stream size : 547 MiB (2%)

  95. Title : DD 5.1

  96. Language : English

  97. Service kind : Complete Main

  98. Default : No

  99. Forced : No

  100. Original source medium : Blu-ray


  101. Text #1

  102. ID : 5

  103. Format : UTF-8

  104. Codec ID : S_TEXT/UTF8

  105. Codec ID/Info : UTF-8 Plain Text

  106. Duration : 1 h 52 min

  107. Bit rate : 49 b/s

  108. Count of elements : 1172

  109. Stream size : 40.9 KiB (0%)

  110. Language : English

  111. Default : Yes

  112. Forced : No


  113. Text #2

  114. ID : 6

  115. Format : UTF-8

  116. Codec ID : S_TEXT/UTF8

  117. Codec ID/Info : UTF-8 Plain Text

  118. Duration : 1 h 52 min

  119. Bit rate : 57 b/s

  120. Count of elements : 1373

  121. Stream size : 47.0 KiB (0%)

  122. Title : SDH

  123. Language : English

  124. Default : No

  125. Forced : No


  126. Text #3

  127. ID : 7

  128. ID in the original source medium : 4768 (0x12A0)

  129. Format : PGS

  130. Muxing mode : zlib

  131. Codec ID : S_HDMV/PGS

  132. Codec ID/Info : Picture based subtitle format used on BDs/HD-DVDs

  133. Duration : 1 h 52 min

  134. Bit rate : 33.1 kb/s

  135. Count of elements : 2260

  136. Stream size : 26.6 MiB (0%)

  137. Language : English

  138. Default : No

  139. Forced : No

  140. Original source medium : Blu-ray


  141. Text #4

  142. ID : 8

  143. ID in the original source medium : 4769 (0x12A1)

  144. Format : PGS

  145. Muxing mode : zlib

  146. Codec ID : S_HDMV/PGS

  147. Codec ID/Info : Picture based subtitle format used on BDs/HD-DVDs

  148. Duration : 1 h 52 min

  149. Bit rate : 39.4 kb/s

  150. Count of elements : 2760

  151. Stream size : 31.6 MiB (0%)

  152. Language : English

  153. Default : No

  154. Forced : No

  155. Original source medium : Blu-ray


  156. Text #5

  157. ID : 9

  158. ID in the original source medium : 4770 (0x12A2)

  159. Format : PGS

  160. Muxing mode : zlib

  161. Codec ID : S_HDMV/PGS

  162. Codec ID/Info : Picture based subtitle format used on BDs/HD-DVDs

  163. Duration : 1 h 58 min

  164. Bit rate : 19.7 kb/s

  165. Count of elements : 2239

  166. Stream size : 16.6 MiB (0%)

  167. Language : Chinese

  168. Default : No

  169. Forced : No

  170. Original source medium : Blu-ray


  171. Text #6

  172. ID : 10

  173. ID in the original source medium : 4771 (0x12A3)

  174. Format : PGS

  175. Muxing mode : zlib

  176. Codec ID : S_HDMV/PGS

  177. Codec ID/Info : Picture based subtitle format used on BDs/HD-DVDs

  178. Duration : 1 h 58 min

  179. Bit rate : 30.3 kb/s

  180. Count of elements : 2274

  181. Stream size : 25.6 MiB (0%)

  182. Language : Czech

  183. Default : No

  184. Forced : No

  185. Original source medium : Blu-ray


  186. Text #7

  187. ID : 11

  188. ID in the original source medium : 4772 (0x12A4)

  189. Format : PGS

  190. Muxing mode : zlib

  191. Codec ID : S_HDMV/PGS

  192. Codec ID/Info : Picture based subtitle format used on BDs/HD-DVDs

  193. Duration : 1 h 58 min

  194. Bit rate : 28.6 kb/s

  195. Count of elements : 2220

  196. Stream size : 24.2 MiB (0%)

  197. Language : Danish

  198. Default : No

  199. Forced : No

  200. Original source medium : Blu-ray


  201. Text #8

  202. ID : 12

  203. ID in the original source medium : 4773 (0x12A5)

  204. Format : PGS

  205. Muxing mode : zlib

  206. Codec ID : S_HDMV/PGS

  207. Codec ID/Info : Picture based subtitle format used on BDs/HD-DVDs

  208. Duration : 1 h 58 min

  209. Bit rate : 27.8 kb/s

  210. Count of elements : 2304

  211. Stream size : 23.5 MiB (0%)

  212. Language : German

  213. Default : No

  214. Forced : No

  215. Original source medium : Blu-ray


  216. Text #9

  217. ID : 13

  218. ID in the original source medium : 4774 (0x12A6)

  219. Format : PGS

  220. Muxing mode : zlib

  221. Codec ID : S_HDMV/PGS

  222. Codec ID/Info : Picture based subtitle format used on BDs/HD-DVDs

  223. Duration : 1 h 58 min

  224. Bit rate : 27.9 kb/s

  225. Count of elements : 2232

  226. Stream size : 23.6 MiB (0%)

  227. Language : Spanish

  228. Default : No

  229. Forced : No

  230. Original source medium : Blu-ray


  231. Text #10

  232. ID : 14

  233. ID in the original source medium : 4775 (0x12A7)

  234. Format : PGS

  235. Muxing mode : zlib

  236. Codec ID : S_HDMV/PGS

  237. Codec ID/Info : Picture based subtitle format used on BDs/HD-DVDs

  238. Duration : 1 h 58 min

  239. Bit rate : 30.6 kb/s

  240. Count of elements : 2212

  241. Stream size : 25.9 MiB (0%)

  242. Language : Spanish

  243. Default : No

  244. Forced : No

  245. Original source medium : Blu-ray


  246. Text #11

  247. ID : 15

  248. ID in the original source medium : 4776 (0x12A8)

  249. Format : PGS

  250. Muxing mode : zlib

  251. Codec ID : S_HDMV/PGS

  252. Codec ID/Info : Picture based subtitle format used on BDs/HD-DVDs

  253. Duration : 1 h 58 min

  254. Bit rate : 27.4 kb/s

  255. Count of elements : 2048

  256. Stream size : 23.1 MiB (0%)

  257. Language : French

  258. Default : No

  259. Forced : No

  260. Original source medium : Blu-ray


  261. Text #12

  262. ID : 16

  263. ID in the original source medium : 4777 (0x12A9)

  264. Format : PGS

  265. Muxing mode : zlib

  266. Codec ID : S_HDMV/PGS

  267. Codec ID/Info : Picture based subtitle format used on BDs/HD-DVDs

  268. Duration : 1 h 58 min

  269. Bit rate : 29.9 kb/s

  270. Count of elements : 2274

  271. Stream size : 25.3 MiB (0%)

  272. Language : Italian

  273. Default : No

  274. Forced : No

  275. Original source medium : Blu-ray


  276. Text #13

  277. ID : 17

  278. ID in the original source medium : 4778 (0x12AA)

  279. Format : PGS

  280. Muxing mode : zlib

  281. Codec ID : S_HDMV/PGS

  282. Codec ID/Info : Picture based subtitle format used on BDs/HD-DVDs

  283. Duration : 1 h 52 min

  284. Bit rate : 17.7 kb/s

  285. Count of elements : 1956

  286. Stream size : 14.2 MiB (0%)

  287. Language : Japanese

  288. Default : No

  289. Forced : No

  290. Original source medium : Blu-ray


  291. Text #14

  292. ID : 18

  293. ID in the original source medium : 4779 (0x12AB)

  294. Format : PGS

  295. Muxing mode : zlib

  296. Codec ID : S_HDMV/PGS

  297. Codec ID/Info : Picture based subtitle format used on BDs/HD-DVDs

  298. Duration : 1 h 58 min

  299. Bit rate : 20.8 kb/s

  300. Count of elements : 2316

  301. Stream size : 17.5 MiB (0%)

  302. Language : Korean

  303. Default : No

  304. Forced : No

  305. Original source medium : Blu-ray


  306. Text #15

  307. ID : 19

  308. ID in the original source medium : 4780 (0x12AC)

  309. Format : PGS

  310. Muxing mode : zlib

  311. Codec ID : S_HDMV/PGS

  312. Codec ID/Info : Picture based subtitle format used on BDs/HD-DVDs

  313. Duration : 1 h 58 min

  314. Bit rate : 21.8 kb/s

  315. Count of elements : 2198

  316. Stream size : 18.4 MiB (0%)

  317. Language : Chinese

  318. Default : No

  319. Forced : No

  320. Original source medium : Blu-ray


  321. Text #16

  322. ID : 20

  323. ID in the original source medium : 4781 (0x12AD)

  324. Format : PGS

  325. Muxing mode : zlib

  326. Codec ID : S_HDMV/PGS

  327. Codec ID/Info : Picture based subtitle format used on BDs/HD-DVDs

  328. Duration : 1 h 56 min

  329. Bit rate : 27.9 kb/s

  330. Count of elements : 2190

  331. Stream size : 23.2 MiB (0%)

  332. Language : Dutch

  333. Default : No

  334. Forced : No

  335. Original source medium : Blu-ray


  336. Text #17

  337. ID : 21

  338. ID in the original source medium : 4782 (0x12AE)

  339. Format : PGS

  340. Muxing mode : zlib

  341. Codec ID : S_HDMV/PGS

  342. Codec ID/Info : Picture based subtitle format used on BDs/HD-DVDs

  343. Duration : 1 h 58 min

  344. Bit rate : 24.6 kb/s

  345. Count of elements : 2130

  346. Stream size : 20.8 MiB (0%)

  347. Language : Norwegian

  348. Default : No

  349. Forced : No

  350. Original source medium : Blu-ray


  351. Text #18

  352. ID : 22

  353. ID in the original source medium : 4783 (0x12AF)

  354. Format : PGS

  355. Muxing mode : zlib

  356. Codec ID : S_HDMV/PGS

  357. Codec ID/Info : Picture based subtitle format used on BDs/HD-DVDs

  358. Duration : 1 h 58 min

  359. Bit rate : 29.3 kb/s

  360. Count of elements : 2226

  361. Stream size : 24.8 MiB (0%)

  362. Language : Polish

  363. Default : No

  364. Forced : No

  365. Original source medium : Blu-ray


  366. Text #19

  367. ID : 23

  368. ID in the original source medium : 4784 (0x12B0)

  369. Format : PGS

  370. Muxing mode : zlib

  371. Codec ID : S_HDMV/PGS

  372. Codec ID/Info : Picture based subtitle format used on BDs/HD-DVDs

  373. Duration : 1 h 58 min

  374. Bit rate : 28.1 kb/s

  375. Count of elements : 2238

  376. Stream size : 23.7 MiB (0%)

  377. Language : Portuguese

  378. Default : No

  379. Forced : No

  380. Original source medium : Blu-ray


  381. Text #20

  382. ID : 24

  383. ID in the original source medium : 4786 (0x12B2)

  384. Format : PGS

  385. Muxing mode : zlib

  386. Codec ID : S_HDMV/PGS

  387. Codec ID/Info : Picture based subtitle format used on BDs/HD-DVDs

  388. Duration : 1 h 58 min

  389. Bit rate : 31.4 kb/s

  390. Count of elements : 2320

  391. Stream size : 26.5 MiB (0%)

  392. Language : Russian

  393. Default : No

  394. Forced : No

  395. Original source medium : Blu-ray


  396. Text #21

  397. ID : 25

  398. ID in the original source medium : 4787 (0x12B3)

  399. Format : PGS

  400. Muxing mode : zlib

  401. Codec ID : S_HDMV/PGS

  402. Codec ID/Info : Picture based subtitle format used on BDs/HD-DVDs

  403. Duration : 1 h 56 min

  404. Bit rate : 29.8 kb/s

  405. Count of elements : 2144

  406. Stream size : 24.8 MiB (0%)

  407. Language : Romanian

  408. Default : No

  409. Forced : No

  410. Original source medium : Blu-ray


  411. Text #22

  412. ID : 26

  413. ID in the original source medium : 4788 (0x12B4)

  414. Format : PGS

  415. Muxing mode : zlib

  416. Codec ID : S_HDMV/PGS

  417. Codec ID/Info : Picture based subtitle format used on BDs/HD-DVDs

  418. Duration : 1 h 56 min

  419. Bit rate : 21.0 kb/s

  420. Count of elements : 2179

  421. Stream size : 17.5 MiB (0%)

  422. Language : Chinese

  423. Default : No

  424. Forced : No

  425. Original source medium : Blu-ray


  426. Text #23

  427. ID : 27

  428. ID in the original source medium : 4789 (0x12B5)

  429. Format : PGS

  430. Muxing mode : zlib

  431. Codec ID : S_HDMV/PGS

  432. Codec ID/Info : Picture based subtitle format used on BDs/HD-DVDs

  433. Duration : 1 h 58 min

  434. Bit rate : 31.4 kb/s

  435. Count of elements : 2280

  436. Stream size : 26.5 MiB (0%)

  437. Language : Slovak

  438. Default : No

  439. Forced : No

  440. Original source medium : Blu-ray


  441. Text #24

  442. ID : 28

  443. ID in the original source medium : 4790 (0x12B6)

  444. Format : PGS

  445. Muxing mode : zlib

  446. Codec ID : S_HDMV/PGS

  447. Codec ID/Info : Picture based subtitle format used on BDs/HD-DVDs

  448. Duration : 1 h 58 min

  449. Bit rate : 26.6 kb/s

  450. Count of elements : 2190

  451. Stream size : 22.5 MiB (0%)

  452. Language : Finnish

  453. Default : No

  454. Forced : No

  455. Original source medium : Blu-ray


  456. Text #25

  457. ID : 29

  458. ID in the original source medium : 4791 (0x12B7)

  459. Format : PGS

  460. Muxing mode : zlib

  461. Codec ID : S_HDMV/PGS

  462. Codec ID/Info : Picture based subtitle format used on BDs/HD-DVDs

  463. Duration : 1 h 58 min

  464. Bit rate : 22.1 kb/s

  465. Count of elements : 1878

  466. Stream size : 18.7 MiB (0%)

  467. Language : Swedish

  468. Default : No

  469. Forced : No

  470. Original source medium : Blu-ray


  471. Text #26

  472. ID : 30

  473. ID in the original source medium : 4792 (0x12B8)

  474. Format : PGS

  475. Muxing mode : zlib

  476. Codec ID : S_HDMV/PGS

  477. Codec ID/Info : Picture based subtitle format used on BDs/HD-DVDs

  478. Duration : 1 h 56 min

  479. Bit rate : 25.4 kb/s

  480. Count of elements : 2278

  481. Stream size : 21.1 MiB (0%)

  482. Language : Thai

  483. Default : No

  484. Forced : No

  485. Original source medium : Blu-ray


  486. Menu

  487. 00:00:00.000 : en:Chapter 01

  488. 00:02:42.829 : en:Chapter 02

  489. 00:06:40.900 : en:Chapter 03

  490. 00:08:16.370 : en:Chapter 04

  491. 00:10:39.096 : en:Chapter 05

  492. 00:15:59.208 : en:Chapter 06

  493. 00:19:37.843 : en:Chapter 07

  494. 00:23:12.140 : en:Chapter 08

  495. 00:29:39.235 : en:Chapter 09

  496. 00:33:59.912 : en:Chapter 10

  497. 00:35:59.991 : en:Chapter 11

  498. 00:41:02.251 : en:Chapter 12

  499. 00:43:26.312 : en:Chapter 13

  500. 00:47:31.640 : en:Chapter 14

  501. 01:01:34.148 : en:Chapter 15

  502. 01:08:17.218 : en:Chapter 16

  503. 01:17:16.465 : en:Chapter 17

  504. 01:18:33.792 : en:Chapter 18

  505. 01:22:11.760 : en:Chapter 19

  506. 01:26:28.850 : en:Chapter 20

  507. 01:35:57.918 : en:Chapter 21

  508. 01:39:08.943 : en:Chapter 22

  509. 01:47:20.851 : en:Chapter 23

  510. 01:55:29.088 : en:Chapter 24

复制代码

     


TAGS 剧情 惊悚 犯罪 历史 /

磁力链:
  • magnet:?xt=urn:btih:E5F7BB1D2733286F43C1AD74A5A25AD61AFE7D7F
上传的附件:
BT9527电影天堂 1、BT9527电影天堂提供的BT文件均来源于互联网抓取,只供网友学习交流、技术提升使用。
2、我们遵守BitTorrent点对点协议原则,任何版权问题请联系原资源发布商,我们不处理任何版权纠纷,谢谢!如有争议请联系邮箱:BT9527#hotmail.com(#换成@)
3、如果您发现某页面或地址有错误,请联系站长邮箱BT9527#hotmail.com(#换成@),我们会尽快处理。您的热心是对BT9527电影天堂最大的支持。
4、本站建议去正规影院观看电影以支持电影行业发展。
最新回复 (0)

你可以在 登录 or 注册 后,对此帖发表评论!

返回
发新帖