腿[国语配音/中文字幕].A.Leg.2020.1080p.DSNP.WEB-DL.DDP5.1.H.264-CTRLWEB 4.58GB

版主小s 1月前 988

◎译 名 腿 / A Leg

◎年 代 2020

◎产 地 中国台湾

◎类 别 剧情 / 喜剧 / 爱情

◎语 言 汉语普通话 / 闽南话

◎上映日期 2020-12-24(中国台湾) / 2020-11-05(台北金马影展)

◎IMDb链接 https://www.imdb.com/title/tt12921022/

◎豆瓣评分 6.4/10 (6545人评价)

◎豆瓣链接 https://movie.douban.com/subject/34925598/

◎片 长 115分钟

◎导 演 张耀升 Yao-sheng Chang (id:1365734)

◎编 剧 张耀升 Yao-sheng Chang (id:1365734)

钟孟宏 Mong-Hong Chung (id:1312987)

◎演 员 桂纶镁 Lunmei Gwei (id:1215287)

杨祐宁 Yo Yang (id:1051157)

张少怀 Shao-Huai Chang (id:1339540)

李李仁 Liren Li (id:1016537)

金士杰 Shih-Chieh King (id:1275482)

林志儒 Chih-ju Lin (id:1358307)

陈以文 Yiwen Chen (id:1280584)

张立东 Li-tung Chang (id:1355934)

王自强 Tzu-Chiang Wang (id:1358346)

杨丽音 Li-Yin Yang (id:1318089)

刘亮佐 Liang-tso Liu (id:1313480)

施名帅 Ming-Shuai Shih (id:1358341)

黄健玮 Chien-wei Huang (id:1274687)

纳豆 Nadow Lin (id:1314075)

刘冠廷 Kuan-ting Liu (id:1377282)

涂善存 Charles Tu (id:1416909)

萧鸿文 Hung-wen Hsiao (id:1455430)

钟孟宏 Mong-Hong Chung (id:1312987)

曾少千 Shao-chien Tseng (id:1452888)

董成瑜 Cheng-Yu Tung (id:1450607)

叶如芬 Ju-feng Yeh (id:1335030)

卢律铭 Lüming Lu (id:1401859)

钟孟宏 Mong-Hong Chung (id:1312987)

刘三郎 Saburo Liu (id:1401856)

陈志轩 Chen Chih-Hsuan (id:1416613)

赖秀雄 Hsiu-hsiung Lai (id:1377227)

赵思豪 Shih-Hao Chao (id:1331249)

许力文 Li Wen Hsu (id:1362886)

宋铭忠 Ming-Chung Sung (id:1390858)

苗又文 Youwen Miao (id:1452921)

杜均堂 Patrick Tu (id:1382402)

杜笃之 Du-Che Tu (id:1275159)

吴书瑶 Shu-Yao Wu (id:1335027)

◎简 介

钱钰盈(桂纶镁饰)的丈夫郑子汉(杨祐宁饰)在腿部截肢手术后不幸离世,钱钰盈想拿回丈夫被截肢的腿,却被医院百般刁难、互踢皮球,于是一场异想天开的“夺腿计划”就此展开!她缠着外科医生要求帮忙,跑到一般人从未见过的医院地下室,在一包包检体中寻找丈夫的腿,甚至找上内勤人员监控医院合作车辆的GPS,闹到医院院长都来关切…

而这段充满黑色幽默的寻腿旅程中,也勾起钱钰盈与郑子汉从相识、相爱到相互亏欠的过往回忆。郑子汉对美丽的国标舞者钱钰盈一见钟情,在照相馆朋友约翰(张少怀饰)的牵线之下成为她的舞伴,两人坠入爱河、步入婚姻,是人人称羡的神仙眷侣。但郑子汉一心想要赚大钱让妻子过美好日子,却让两人的感情逼入绝境,最终形同陌路,没想到两颗心再次靠近时却是在医院里将面临生离死别的时候…

◎获奖情况 (共1项)

第23届台北电影节 (2021)

台北电影奖 最佳音乐奖

└──卢律铭 (id:1401859)

  1. ##### MediaInfo ######

  2. General

  3. Unique ID : 122698241420640817805460553470311539740 (0x5C4ED25CBCE0F1BB8F0904C32812241C)

  4. Complete name : A.Leg.2020.1080p.DSNP.WEB-DL.DDP5.1.H.264-CTRLWEB.mkv

  5. Format : Matroska

  6. Format version : Version 4

  7. File size : 4.58 GiB

  8. Duration : 1 h 55 min

  9. Overall bit rate mode : Variable

  10. Overall bit rate : 5 686 kb/s

  11. Encoded date : UTC 2022-05-24 11:58:39

  12. Writing application : mkvmerge v65.0.0 ('Too Much') 64-bit

  13. Writing library : libebml v1.4.2 + libmatroska v1.6.4

  14. Video

  15. ID : 1

  16. Format : AVC

  17. Format/Info : Advanced Video Codec

  18. Format profile : High@L4

  19. Format settings : CABAC / 4 Ref Frames

  20. Format settings, CABAC : Yes

  21. Format settings, Reference frames : 4 frames

  22. Codec ID : V_MPEG4/ISO/AVC

  23. Duration : 1 h 55 min

  24. Bit rate mode : Variable

  25. Bit rate : 5 428 kb/s

  26. Maximum bit rate : 12.7 Mb/s

  27. Width : 1 920 pixels

  28. Height : 1 080 pixels

  29. Display aspect ratio : 16:9

  30. Frame rate mode : Constant

  31. Frame rate : 24.000 FPS

  32. Color space : YUV

  33. Chroma subsampling : 4:2:0

  34. Bit depth : 8 bits

  35. Scan type : Progressive

  36. Bits/(Pixel*Frame) : 0.109

  37. Stream size : 4.37 GiB (95%)

  38. Language : English

  39. Default : Yes

  40. Forced : No

  41. Color range : Limited

  42. Color primaries : BT.709

  43. Transfer characteristics : BT.709

  44. Matrix coefficients : BT.709

  45. Audio

  46. ID : 2

  47. Format : E-AC-3

  48. Format/Info : Enhanced AC-3

  49. Commercial name : Dolby Digital Plus

  50. Codec ID : A_EAC3

  51. Duration : 1 h 55 min

  52. Bit rate mode : Constant

  53. Bit rate : 256 kb/s

  54. Channel(s) : 6 channels

  55. Channel layout : L R C LFE Ls Rs

  56. Sampling rate : 48.0 kHz

  57. Frame rate : 31.250 FPS (1536 SPF)

  58. Compression mode : Lossy

  59. Stream size : 211 MiB (5%)

  60. Language : Chinese

  61. Service kind : Complete Main

  62. Default : Yes

  63. Forced : No

  64. Text

  65. ID : 3

  66. Format : UTF-8

  67. Codec ID : S_TEXT/UTF8

  68. Codec ID/Info : UTF-8 Plain Text

  69. Duration : 1 h 49 min

  70. Bit rate : 50 b/s

  71. Count of elements : 1559

  72. Stream size : 40.3 KiB (0%)

  73. Title : Traditional

  74. Language : Chinese

  75. Default : No

  76. Forced : No


复制代码


TAGS 剧情 喜剧 爱情 /

磁力链:
  • magnet:?xt=urn:btih:050129F46EB5EB7094953757F3334E04BD93340C
上传的附件:
BT9527电影天堂 1、BT9527电影天堂提供的BT文件均来源于互联网抓取,只供网友学习交流、技术提升使用。
2、我们遵守BitTorrent点对点协议原则,任何版权问题请联系原资源发布商,我们不处理任何版权纠纷,谢谢!如有争议请联系邮箱:BT9527#hotmail.com(#换成@)
3、如果您发现某页面或地址有错误,请联系站长邮箱BT9527#hotmail.com(#换成@),我们会尽快处理。您的热心是对BT9527电影天堂最大的支持。
4、本站建议去正规影院观看电影以支持电影行业发展。
最新回复 (0)

你可以在 登录 or 注册 后,对此帖发表评论!

返回