敢死队3[国英多音轨/简繁英特效字幕].The.Expendables.3.2014.ULTRAHD.BluRay.2160p.x265.10bit.HDR.4Audio-MiniHD 18.21GB

版主小s 1月前 165

◎译 名 敢死队3 / 浴血任务3(台) / 轰天猛将3(港)

◎片 名 The Expendables 3

◎年 代 2014

◎产 地 美国 / 法国

◎类 别 动作 / 惊悚 / 冒险

◎语 言 英语

◎上映日期 2014-09-01(中国大陆) / 2014-08-04(伦敦首映) / 2014-08-15(美国)

◎IMDb链接 https://www.imdb.com/title/tt2333784/

◎豆瓣评分 6.9/10 (118853人评价)

◎豆瓣链接 https://movie.douban.com/subject/11610281/

◎片 长 126分钟(美国)

◎导 演 帕特里克·休斯 Patrick Hughes (id:1328352)

◎编 剧 西尔维斯特·史泰龙 Sylvester Stallone (id:1047996)

克赖顿·罗森博格 Creighton Rothenberger (id:1327535)

凯特琳·贝内迪克特 Katrin Benedikt (id:1327536)

戴夫·卡拉汉姆 Dave Callaham (id:1040838)

◎演 员 西尔维斯特·史泰龙 Sylvester Stallone (id:1047996)

杰森·斯坦森 Jason Statham (id:1049484)

梅尔·吉布森 Mel Gibson (id:1054530)

哈里森·福特 Harrison Ford (id:1009238)

韦斯利·斯奈普斯 Wesley Snipes (id:1022591)

安东尼奥·班德拉斯 Antonio Banderas (id:1022582)

凯尔希·格兰莫 Kelsey Grammer (id:1031847)

杜夫·龙格尔 Dolph Lundgren (id:1040508)

泰瑞·克鲁斯 Terry Crews (id:1022577)

兰迪·库卓 Randy Couture (id:1009313)

维克托·奥尔蒂斯 Victor Ortiz (id:1341465)

凯南·鲁兹 Kellan Lutz (id:1031799)

阿诺·施瓦辛格 Arnold Schwarzenegger (id:1035643)

李连杰 Jet Li (id:1025146)

龙达·鲁西 Ronda Rousey (id:1337108)

伊凡·科斯塔迪诺夫 Ivan Kostadinov (id:1341865)

巴沙尔·拉海尔 Bashar Rahal (id:1140666)

托马斯·卡内斯特拉罗 Thomas Canestraro (id:1467905)

罗伯特·戴维 Robert Davi (id:1010551)

格伦·鲍威尔 Glen Powell (id:1323123)

沃利扎·比尼夫 Velizar Binev (id:1067224)

娜塔莉·伯恩 Natalie Burn (id:1341315)

萨拉·吉瓦蒂 Sarai Givaty (id:1183793)

布莱恩·泰勒 Brian Tyler (id:1276412)

小彼得·孟席斯 Peter Menzies Jr. (id:1443467)

利兹·沃尔夫 Lizz Wolf (id:1466605)

特伦斯·伯杰龙 Terrence Bergeron (id:1411064)

托马斯·卡内斯特拉罗 Thomas Canestraro (id:1467905)

◎简 介

影片开场,巴尼·罗斯(西尔维斯特·史泰龙 Sylvester Stallone 饰)带领敢死队的老伙计李(杰森·斯坦森 Jason Statham 饰)、贡纳(杜夫·龙格尔 Dolph Lundgren 饰)等人驾驶直升机劫持火车,救出了被囚禁的用刀高手医生(韦斯利·斯奈普斯 Wesley Snipes 饰)。经过短暂的休整,他们奔赴索马里潜入某倒卖军火组织的老巢中执行任务,谁知巴尼发现该组织老大竟然是当年本该死去的敢死队战友康拉德·斯通班克(梅尔·吉布森 Mel Gibson 饰)。一番激烈的交火过后,斯通班克成功逃脱,而敢死队方面则损失惨重。

此役过后,不仅军方和敢死队藏着一股怒火,连斯通班克也被彻底激怒,最强的硬汉迎来生死对决……

◎获奖情况 (共3项)

第35届金酸莓奖 (2015)

最差男配角

└──凯尔希·格兰莫 (id:1031847)

最差男配角(提名)

第1届豆瓣电影年度榜单 (2014)

9月最受关注电影(提名)

  1. ##### MediaInfo ######

  2. General

  3. Unique ID : 136099892995928314028644088132340499705 (0x6663E2CCA0C580F12E4C5ECE236344F9)

  4. Complete name : The.Expendables.3.2014.ULTRAHD.BluRay.2160p.x265.10bit.HDR.4Audio-MiniHD.mkv

  5. Format : Matroska

  6. Format version : Version 4

  7. File size : 18.2 GiB

  8. Duration : 2 h 6 min

  9. Overall bit rate mode : Variable

  10. Overall bit rate : 20.6 Mb/s

  11. Encoded date : UTC 2018-07-18 14:20:32

  12. Writing application : mkvmerge v20.0.0 ('I Am The Sun') 64-bit

  13. Writing library : libebml v1.3.5 + libmatroska v1.4.8

  14. Cover : Yes

  15. Attachments : cover.jpg / cover.jpg

  16. Video

  17. ID : 1

  18. Format : HEVC

  19. Format/Info : High Efficiency Video Coding

  20. Format profile : Main 10@L5.1@High

  21. Codec ID : V_MPEGH/ISO/HEVC

  22. Duration : 2 h 6 min

  23. Bit rate : 11.9 Mb/s

  24. Width : 3 840 pixels

  25. Height : 1 600 pixels

  26. Display aspect ratio : 2.40:1

  27. Frame rate mode : Constant

  28. Frame rate : 23.976 (24000/1001/53354) FPS

  29. Color space : YUV

  30. Chroma subsampling : 4:2:0

  31. Bit depth : 10 bits

  32. Bits/(Pixel*Frame) : 0.081

  33. Stream size : 10.5 GiB (58%)

  34. Default : Yes

  35. Forced : No

  36. Color range : Limited

  37. Color primaries : BT.2020

  38. Transfer characteristics : PQ

  39. Matrix coefficients : BT.2020 non-constant

  40. Audio #1

  41. ID : 2

  42. Format : MLP FBA 16-ch

  43. Format/Info : Meridian Lossless Packing FBA with 16-channel presentation

  44. Commercial name : Dolby TrueHD with Dolby Atmos

  45. Codec ID : A_TRUEHD

  46. Duration : 2 h 6 min

  47. Bit rate mode : Variable

  48. Bit rate : 5 161 kb/s

  49. Maximum bit rate : 8 064 kb/s

  50. Channel(s) : 8 channels

  51. Channel layout : L R C LFE Ls Rs Lb Rb

  52. Sampling rate : 48.0 kHz

  53. Frame rate : 1 200.000 FPS (40 SPF)

  54. Compression mode : Lossless

  55. Stream size : 4.55 GiB (25%)

  56. Title : 英语全景声

  57. Language : English

  58. Default : Yes

  59. Forced : No

  60. Number of dynamic objects : 11

  61. Bed channel count : 1 channel

  62. Bed channel configuration : LFE

  63. Audio #2

  64. ID : 3

  65. Format : AC-3

  66. Format/Info : Audio Coding 3

  67. Commercial name : Dolby Digital

  68. Codec ID : A_AC3

  69. Duration : 2 h 6 min

  70. Bit rate mode : Constant

  71. Bit rate : 640 kb/s

  72. Channel(s) : 6 channels

  73. Channel layout : L R C LFE Ls Rs

  74. Sampling rate : 48.0 kHz

  75. Frame rate : 31.250 FPS (1536 SPF)

  76. Compression mode : Lossy

  77. Stream size : 578 MiB (3%)

  78. Title : 英语AC-3

  79. Language : English

  80. Service kind : Complete Main

  81. Default : No

  82. Forced : No

  83. Audio #3

  84. ID : 4

  85. Format : MLP FBA

  86. Format/Info : Meridian Lossless Packing FBA

  87. Commercial name : Dolby TrueHD

  88. Codec ID : A_TRUEHD

  89. Duration : 2 h 6 min

  90. Bit rate mode : Variable

  91. Bit rate : 2 058 kb/s

  92. Maximum bit rate : 3 750 kb/s

  93. Channel(s) : 8 channels

  94. Channel layout : L R C LFE Ls Rs Lb Rb

  95. Sampling rate : 48.0 kHz

  96. Frame rate : 1 200.000 FPS (40 SPF)

  97. Compression mode : Lossless

  98. Delay relative to video : 1 s 0 ms

  99. Stream size : 1.82 GiB (10%)

  100. Title : 上译国语THD

  101. Language : Chinese

  102. Default : No

  103. Forced : No

  104. Audio #4

  105. ID : 5

  106. Format : AC-3

  107. Format/Info : Audio Coding 3

  108. Commercial name : Dolby Digital

  109. Codec ID : A_AC3

  110. Duration : 2 h 6 min

  111. Bit rate mode : Constant

  112. Bit rate : 640 kb/s

  113. Channel(s) : 6 channels

  114. Channel layout : L R C LFE Ls Rs

  115. Sampling rate : 48.0 kHz

  116. Frame rate : 31.250 FPS (1536 SPF)

  117. Compression mode : Lossy

  118. Stream size : 578 MiB (3%)

  119. Title : 上译国语AC-3

  120. Language : Chinese

  121. Service kind : Complete Main

  122. Default : No

  123. Forced : No

  124. Text #1

  125. ID : 6

  126. Format : PGS

  127. Muxing mode : zlib

  128. Codec ID : S_HDMV/PGS

  129. Codec ID/Info : Picture based subtitle format used on BDs/HD-DVDs

  130. Duration : 1 h 57 min

  131. Bit rate : 79.5 kb/s

  132. Count of elements : 6481

  133. Stream size : 66.9 MiB (0%)

  134. Title : 国配简中特效

  135. Language : Chinese

  136. Default : Yes

  137. Forced : No

  138. Text #2

  139. ID : 7

  140. Format : PGS

  141. Muxing mode : zlib

  142. Codec ID : S_HDMV/PGS

  143. Codec ID/Info : Picture based subtitle format used on BDs/HD-DVDs

  144. Duration : 1 h 55 min

  145. Bit rate : 17.4 kb/s

  146. Count of elements : 2662

  147. Stream size : 14.4 MiB (0%)

  148. Title : R3简体中文

  149. Language : Chinese

  150. Default : No

  151. Forced : No

  152. Text #3

  153. ID : 8

  154. Format : PGS

  155. Muxing mode : zlib

  156. Codec ID : S_HDMV/PGS

  157. Codec ID/Info : Picture based subtitle format used on BDs/HD-DVDs

  158. Duration : 1 h 55 min

  159. Bit rate : 17.4 kb/s

  160. Count of elements : 2662

  161. Stream size : 14.4 MiB (0%)

  162. Title : R3繁体中文

  163. Language : Chinese

  164. Default : No

  165. Forced : No

  166. Text #4

  167. ID : 9

  168. Format : PGS

  169. Muxing mode : zlib

  170. Codec ID : S_HDMV/PGS

  171. Codec ID/Info : Picture based subtitle format used on BDs/HD-DVDs

  172. Duration : 1 h 53 min

  173. Bit rate : 28.1 kb/s

  174. Count of elements : 2414

  175. Stream size : 22.9 MiB (0%)

  176. Title : 英文

  177. Language : English

  178. Default : No

  179. Forced : No

  180. Menu

  181. 00:00:00.000 : en:Chapter 01

  182. 00:05:38.087 : en:Chapter 02

  183. 00:16:39.748 : en:Chapter 03

  184. 00:24:31.428 : en:Chapter 04

  185. 00:33:52.280 : en:Chapter 05

  186. 00:43:07.543 : en:Chapter 06

  187. 00:49:14.117 : en:Chapter 07

  188. 01:01:39.320 : en:Chapter 08

  189. 01:09:36.338 : en:Chapter 09

  190. 01:16:44.016 : en:Chapter 10

  191. 01:26:14.961 : en:Chapter 11

  192. 01:31:53.466 : en:Chapter 12

  193. 01:40:12.172 : en:Chapter 13

  194. 01:47:25.105 : en:Chapter 14

  195. 01:56:35.613 : en:Chapter 15


TAGS 动作 冒险 惊悚 /

磁力链:
  • magnet:?xt=urn:btih:F169F100EB855A154BC34677A832D0745C22C37B
上传的附件:
BT9527电影天堂 1、BT9527电影天堂提供的BT文件均来源于互联网抓取,只供网友学习交流、技术提升使用。
2、我们遵守BitTorrent点对点协议原则,任何版权问题请联系原资源发布商,我们不处理任何版权纠纷,谢谢!如有争议请联系邮箱:BT9527#hotmail.com(#换成@)
3、如果您发现某页面或地址有错误,请联系站长邮箱BT9527#hotmail.com(#换成@),我们会尽快处理。您的热心是对BT9527电影天堂最大的支持。
4、本站建议去正规影院观看电影以支持电影行业发展。
最新回复 (0)

你可以在 登录 or 注册 后,对此帖发表评论!

返回
发新帖