敢死队[简英特效字幕].The.Expendables.2010.UHD.BluRay.2160p.x265.10bit.HDR-MiniHD 15.48GB

版主小s 1月前 126

◎译 名 敢死队 / 浴血任务(台) / 轰天猛将(港) / 牺牲品

◎片 名 The Expendables

◎年 代 2010

◎产 地 美国 / 保加利亚 / 西班牙 / 德国

◎类 别 动作 / 惊悚 / 冒险

◎语 言 英语 / 西班牙语

◎上映日期 2010-08-20(中国大陆) / 2010-08-13(美国)

◎IMDb链接 https://www.imdb.com/title/tt1320253/

◎豆瓣评分 6.9/10 (176587人评价)

◎豆瓣链接 https://movie.douban.com/subject/3279080/

◎片 长 103分钟

◎导 演 西尔维斯特·史泰龙 Sylvester Stallone (id:1047996)

◎编 剧 西尔维斯特·史泰龙 Sylvester Stallone (id:1047996)

◎演 员 西尔维斯特·史泰龙 Sylvester Stallone (id:1047996)

杰森·斯坦森 Jason Statham (id:1049484)

李连杰 Jet Li (id:1025146)

杜夫·龙格尔 Dolph Lundgren (id:1040508)

埃里克·罗伯茨 Eric Roberts (id:1002670)

兰迪·库卓 Randy Couture (id:1009313)

大卫·札亚斯 David Zayas (id:1274264)

史蒂夫·奥斯汀 Steve Austin (id:1036340)

米基·洛克 Mickey Rourke (id:1035646)

吉瑟勒尔·伊迪斯 Giselle Itié (id:1109696)

查瑞丝玛·卡朋特 Charisma Carpenter (id:1022583)

盖瑞·丹尼尔斯 Gary Daniels (id:1044907)

泰瑞·克鲁斯 Terry Crews (id:1022577)

阿诺·施瓦辛格 Arnold Schwarzenegger (id:1035643)

布鲁斯·威利斯 Bruce Willis (id:1010509)

卡德罗莎·奥娜·卡罗尔 (id:1459808)

布莱恩·泰勒 Brian Tyler (id:1276412)

利兹·沃尔夫 Lizz Wolf (id:1466605)

◎简 介

其貌不扬的退伍老兵巴尼·罗斯(西尔维斯特·史泰龙 Sylvester Stallone 饰)生活在城市的某个角落,事实上他却是一支特种兵的领袖,其麾下云集了李(杰森·斯坦森 Jason Statham 饰)、杨(李连杰 Jet Li 饰)等一众高手。正所谓艺高人胆大,只要酬金给足,再危险的任务也敢接。这天,来自中情局的教堂先生(布鲁斯·威利斯 Bruce Willis 饰)联系到巴尼,雇用他们前往位于南美的比莱纳岛,铲除与美国政府作对的独裁将军加尔萨(David Zayas 饰)。

由于任务艰险,巴尼和李先行探路,发现加尔萨与前中情局官员詹姆斯·门罗相互勾结,残酷压榨比莱纳岛的人民。不久巴尼和他的战友赶赴小岛,而更大的挑战正等待着这群骁勇的战士们……

◎获奖情况 (共1项)

第31届金酸莓奖 (2011)

最差导演(提名)

└──西尔维斯特·史泰龙 (id:1047996)

  1. ##### MediaInfo ######

  2. General

  3. Unique ID : 190101229788943747948520264879073344686 (0x8F042A43705E5C82386C61FA94773CAE)

  4. Complete name : 敢死队1.The.Expendables.2010.UHD.BluRay.2160p.x265.10bit.HDR-MiniHD.mkv

  5. Format : Matroska

  6. Format version : Version 4

  7. File size : 15.5 GiB

  8. Duration : 1 h 43 min

  9. Overall bit rate mode : Variable

  10. Overall bit rate : 21.4 Mb/s

  11. Encoded date : UTC 2020-02-04 04:39:27

  12. Writing application : mkvmerge v43.0.0 ('The Quartermaster') 64-bit

  13. Writing library : libebml v1.3.10 + libmatroska v1.5.2

  14. Video

  15. ID : 1

  16. Format : HEVC

  17. Format/Info : High Efficiency Video Coding

  18. Format profile : Main 10@L5.1@High

  19. HDR format : SMPTE ST 2086, HDR10 compatible

  20. Codec ID : V_MPEGH/ISO/HEVC

  21. Duration : 1 h 43 min

  22. Bit rate : 15.1 Mb/s

  23. Width : 3 840 pixels

  24. Height : 1 600 pixels

  25. Display aspect ratio : 2.40:1

  26. Frame rate mode : Constant

  27. Frame rate : 23.976 (24000/1001/53354) FPS

  28. Color space : YUV

  29. Chroma subsampling : 4:2:0

  30. Bit depth : 10 bits

  31. Bits/(Pixel*Frame) : 0.102

  32. Stream size : 10.9 GiB (70%)

  33. Title : mUHD

  34. Writing library : x265 3.2+7-gb291a1c95+26:[Windows][MSVC 1916][64 bit] Yuuki 10bit

  35. Encoding settings : rc=crf / crf=18.5000 / qcomp=0.70 / qpstep=4 / stats-write=0 / stats-read=0 / vbv-maxrate=120000 / vbv-bufsize=120000 / vbv-init=0.9 / crf-max=0.0 / crf-min=0.0 / no-lossless / no-cu-lossless / aq-mode=1 / aq-strength=0.90 / cbqpoffs=-3 / crqpoffs=-3 / ipratio=1.40 / pbratio=1.20 / psy-rd=0.00 / psy-rdoq=8.00 / deblock=-1:-1 / ref=4 / limit-refs=2 / limit-modes / bframes=8 / b-adapt=2 / bframe-bias=0 / b-pyramid / b-intra / weightp / weightb / min-keyint=1 / max-keyint=360 / rc-lookahead=40 / gop-lookahead=0 / NTMzNTQ=uuDQuD2mJt9fsCf / scenecut=40 / radl=0 / max-cu-size=32 / min-cu-size=8 / me=3 / subme=4 / merange=25 / rdoq-level=2 / rd=4 / rdpenalty=1 / dynamic-rd=0.00 / no-rd-refine / ----- / cutree / no-sao / no-rect / no-amp / no-open-gop / wpp / no-pmode / no-pme / no-psnr / no-ssim / nr-intra=0 / nr-inter=0 / no-constrained-intra / no-strong-intra-smoothing / max-tu-size=32 / tu-inter-depth=2 / tu-intra-depth=2 / limit-tu=3 / qg-size=32 / qpmax=69 / qpmin=0 / ----- / cpuid=533541111039 / frame-threads=4 / numa-pools=24 / log-level=2 / input-csp=1 / input-res=3840x1600 / interlace=0 / level-idc=51 / high-tier=1 / uhd-bd=0 / no-allow-non-conformance / repeat-headers / aud / hrd / info / hash=0 / no-temporal-layers / lookahead-slices=0 / no-splice / no-intra-refresh / ssim-rd / signhide / no-tskip / max-merge=4 / temporal-mvp / no-hme / no-analyze-src-pics / no-sao-non-deblock / selective-sao=0 / no-early-skip / no-rskip / no-fast-intra / no-tskip-fast / no-splitrd-skip / zone-count=0 / no-strict-cbr / no-rc-grain / no-const-vbv / sar=0 / overscan=0 / videoformat=5 / range=0 / colorprim=9 / transfer=16 / colormatrix=9 / chromaloc=0 / display-window=0 / master-display=G(13250,34500)B(7500,3000)R(34000,16000)WP(15635,16450)L(10000000,0) / cll=1000,446 / min-luma=0 / max-luma=1023 / log2-max-poc-lsb=8 / vui-timing-info / vui-hrd-info / slices=1 / no-opt-qp-pps / no-opt-ref-list-length-pps / no-multi-pass-opt-rps / scenecut-bias=0.05 / no-opt-cu-delta-qp / no-aq-motion / hdr / hdr-opt / no-dhdr10-opt / no-idr-recovery-sei / analysis-reuse-level=5 / scale-factor=0 / refine-intra=0 / refine-inter=0 / refine-mv=1 / refine-ctu-distortion=0 / no-limit-sao / ctu-info=0 / no-lowpass-dct / refine-analysis-type=0 / copy-pic=1 / max-ausize-factor=1.0 / no-dynamic-refine / no-single-sei / no-hevc-aq / no-svt / no-field / qp-adaptation-range=1.00

  36. Language : English

  37. Default : Yes

  38. Forced : No

  39. Color range : Limited

  40. Color primaries : BT.2020

  41. Transfer characteristics : PQ

  42. Matrix coefficients : BT.2020 non-constant

  43. Mastering display color primaries : Display P3

  44. Mastering display luminance : min: 0.0000 cd/m2, max: 1000 cd/m2

  45. Maximum Content Light Level : 1000 cd/m2

  46. Maximum Frame-Average Light Level : 446 cd/m2

  47. Audio #1

  48. ID : 2

  49. Format : MLP FBA 16-ch

  50. Format/Info : Meridian Lossless Packing FBA with 16-channel presentation

  51. Commercial name : Dolby TrueHD with Dolby Atmos

  52. Codec ID : A_TRUEHD

  53. Duration : 1 h 43 min

  54. Bit rate mode : Variable

  55. Bit rate : 5 577 kb/s

  56. Maximum bit rate : 9 447 kb/s

  57. Channel(s) : 8 channels

  58. Channel layout : L R C LFE Ls Rs Lb Rb

  59. Sampling rate : 48.0 kHz

  60. Frame rate : 1 200.000 FPS (40 SPF)

  61. Compression mode : Lossless

  62. Stream size : 4.03 GiB (26%)

  63. Title : english TrueHD(Atmos)@7.1

  64. Language : English

  65. Default : Yes

  66. Forced : No

  67. Number of dynamic objects : 15

  68. Bed channel count : 1 channel

  69. Bed channel configuration : LFE

  70. Audio #2

  71. ID : 3

  72. Format : AC-3

  73. Format/Info : Audio Coding 3

  74. Commercial name : Dolby Digital

  75. Codec ID : A_AC3

  76. Duration : 1 h 43 min

  77. Bit rate mode : Constant

  78. Bit rate : 640 kb/s

  79. Channel(s) : 6 channels

  80. Channel layout : L R C LFE Ls Rs

  81. Sampling rate : 48.0 kHz

  82. Frame rate : 31.250 FPS (1536 SPF)

  83. Compression mode : Lossy

  84. Stream size : 474 MiB (3%)

  85. Title : english AC3@5.1

  86. Language : English

  87. Service kind : Complete Main

  88. Default : No

  89. Forced : No

  90. Text #1

  91. ID : 4

  92. Format : PGS

  93. Muxing mode : zlib

  94. Codec ID : S_HDMV/PGS

  95. Codec ID/Info : Picture based subtitle format used on BDs/HD-DVDs

  96. Duration : 1 h 29 min

  97. Bit rate : 26.4 kb/s

  98. Count of elements : 1740

  99. Stream size : 16.9 MiB (0%)

  100. Title : english

  101. Language : English

  102. Default : No

  103. Forced : No

  104. Text #2

  105. ID : 5

  106. Format : PGS

  107. Muxing mode : zlib

  108. Codec ID : S_HDMV/PGS

  109. Codec ID/Info : Picture based subtitle format used on BDs/HD-DVDs

  110. Duration : 1 h 34 min

  111. Bit rate : 29.8 kb/s

  112. Count of elements : 2406

  113. Stream size : 20.1 MiB (0%)

  114. Title : 简体中文

  115. Language : Chinese

  116. Default : No

  117. Forced : No

  118. Text #3

  119. ID : 6

  120. Format : PGS

  121. Muxing mode : zlib

  122. Codec ID : S_HDMV/PGS

  123. Codec ID/Info : Picture based subtitle format used on BDs/HD-DVDs

  124. Duration : 1 h 33 min

  125. Bit rate : 40.4 kb/s

  126. Count of elements : 1660

  127. Stream size : 27.0 MiB (0%)

  128. Title : 简英双语特效

  129. Language : Chinese

  130. Default : Yes

  131. Forced : No

  132. Menu

  133. 00:00:00.000 : :Chapter 01

  134. 00:08:50.821 : :Chapter 02

  135. 00:17:32.176 : :Chapter 03

  136. 00:22:47.741 : :Chapter 04

  137. 00:30:35.166 : :Chapter 05

  138. 00:33:34.846 : :Chapter 06

  139. 00:38:17.128 : :Chapter 07

  140. 00:47:51.785 : :Chapter 08

  141. 00:50:15.178 : :Chapter 09

  142. 00:55:09.222 : :Chapter 10

  143. 01:00:15.737 : :Chapter 11

  144. 01:06:31.529 : :Chapter 12

  145. 01:13:36.537 : :Chapter 13

  146. 01:20:17.229 : :Chapter 14

  147. 01:26:01.322 : :Chapter 15

  148. 01:31:17.180 : :Chapter 16

  149. 01:43:26.533 : :Chapter 17


复制代码


TAGS 动作 冒险 惊悚 /

磁力链:
  • magnet:?xt=urn:btih:AA759ED9274DD6BA7F96861E193982530BA0AEC6
上传的附件:
BT9527电影天堂 1、BT9527电影天堂提供的BT文件均来源于互联网抓取,只供网友学习交流、技术提升使用。
2、我们遵守BitTorrent点对点协议原则,任何版权问题请联系原资源发布商,我们不处理任何版权纠纷,谢谢!如有争议请联系邮箱:BT9527#hotmail.com(#换成@)
3、如果您发现某页面或地址有错误,请联系站长邮箱BT9527#hotmail.com(#换成@),我们会尽快处理。您的热心是对BT9527电影天堂最大的支持。
4、本站建议去正规影院观看电影以支持电影行业发展。
最新回复 (0)

你可以在 登录 or 注册 后,对此帖发表评论!

返回
发新帖