惩罚者2:战争特区[国英多音轨/简英特效字幕].Punisher.War.Zone.2008.BluRay.2160p.x265.10bit.HDR.3Audios-MiniHD 18.08GB

版主小s 1月前 267


惩罚者2:战争特区[国英多音轨/简英特效字幕].Punisher.War.Zone.2008.BluRay.2160p.x265.10bit.HDR.3Audios-MiniHD 18.08GB

◎译  名 惩罚者2:战争特区 / 神鬼制裁2:就地正法(台) / 惩罚者2 战区 / 制裁者2:战争地带
◎片  名 Punisher: War Zone
◎年  代 2008
◎产  地 美国 / 加拿大 / 德国
◎类  别 剧情 / 动作 / 惊悚 / 犯罪
◎语  言 英语
◎上映日期 2008-12-05
◎IMDb链接 https://www.imdb.com/title/tt0450314/
◎豆瓣评分 6.6/10 (13248人评价)
◎豆瓣链接 https://movie.douban.com/subject/1871800/
◎片  长 103 分钟
◎导  演 莱克茜·亚历山大 Lexi Alexander (id:1292184)
◎编  剧 尼克·桑多拉 Nick Santora (id:1388843)
       阿特·马库姆 Art Marcum (id:1306770)
       马特·霍洛维 Matt Holloway (id:1286819)
◎演  员 雷·史蒂文森 Ray Stevenson (id:1019007)
       多米尼克·韦斯特 Dominic West (id:1027173)
       道格·休切逊 Doug Hutchison (id:1018015)
       科林·萨蒙 Colin Salmon (id:1314721)
       韦恩·奈特 Wayne Knight (id:1025209)
       达什·米霍克 Dash Mihok (id:1018075)
       朱莉·本茨 Julie Benz (id:1044710)
       丝黛芬妮·珍妮斯卡斯 Stephanie Janusauskas (id:1401523)
       马克·卡马乔 Mark Camacho (id:1078528)
       罗曼诺·欧萨里 Romano Orzari (id:1135882)
       克拉姆·马立基·桑切斯 Keram Malicki-Sánchez (id:1125975)
       拉里·戴 Larry Day (id:1037110)
       罗恩·利 Ron Lea (id:1369996)
       托尼·卡拉布雷塔 Tony Calabretta (id:1076114)
       T.J. Storm T.J. Storm (id:1323540)
       大卫·瓦迪姆 David Vadim (id:1154955)
       奥伯特·帕拉斯西奥 Aubert Pallascio (id:1025626)
       简卡·摩吉尔 Bjanka Murgel (id:1319133)
       卡斯·安瓦尔 Cas Anvar (id:1323602)
       Jon Barton Jon Barton (id:1177779)
       盖尔·安妮·赫德 Gale Anne Hurd (id:1040812)
       斯坦·李 Stan Lee (id:1013888)
       麦克尔·旺德迈彻 Michael Wandmacher (id:1041894)
       史蒂夫·盖纳 Steve Gainer (id:1042000)
       Jennifer L. Smith Jennifer L. Smith (id:1198453)
       玛丽·特里西亚·伍德 Mary Tricia Wood (id:1165846)
       Andrew Neskoromny Andrew Neskoromny (id:1293058)
       Martin Gendron Martin Gendron (id:1284704)
       Jean Kazemirchuk Jean Kazemirchuk (id:1051540)
       艾德里安·莫罗特 Adrien Morot (id:1292524)
       Melissa Purino Melissa Purino (id:1294986)
       Jessica Rain Jessica Rain (id:1295144)
       Doug Coleman Doug Coleman (id:1281036)
       John McKeown John McKeown (id:1120716)
       Efram Potelle Efram Potelle (id:1276399)
       David Ridlen David Ridlen (id:1048719)
       雷·麦金太尔 Ray McIntyre Jr. (id:1291625)
       亚当·霍华德 Adam Howard (id:1042283)
       Sarah Coatts Sarah Coatts (id:1163314)
       罗伯特·肖特 Robert Short (id:1297515)
       Chris Ervin Chris Ervin (id:1034362)
       Nick Drew Nick Drew (id:1282721)

◎简  介
  前FBI探员弗兰克卡(雷·史蒂文森Ray Stevenson 饰)在黑帮杀掉妻儿之后走向了黑暗复仇的不归路。成为这个城市里隐秘的“惩罚者”,令城内不少罪犯闻风丧胆,而他穿着代表惩罚者的骷髅制服,穿梭在这个充满罪恶的都市中。一名新崛起的黑帮份子比利(多米尼克·威斯特 Dominic West 饰)开始向惩罚者叫嚣,并且还要统领城内各大帮派。可一番激斗之后,比利最终还是败在惩罚者的枪下。不过若干时日之后,一位名叫疯人吉姆(道格·休切逊 Doug Hutchison 饰)的神秘人现身城内,他不但有着和比利一样信念,而且他的手法更离谱——他不但要统一黑帮,还要干掉其他帮派的黑帮头目,做城内真正的寡头老大,甚至他还向惩罚者下了挑战书,要将他置于死地!惩罚者在追查的过程中,渐渐发现了吉姆的真实身份,这令他大吃一惊……

  1. ##### MediaInfo ######
  2. General
  3. Unique ID                                : 304176258480496608046117220960879758534 (0xE4D63769C9614366B72EBCA0056FCCC6)
  4. Complete name                            : Punisher.War.Zone.2008.BluRay.2160p.x265.10bit.HDR.3Audios-MiniHD.mkv
  5. Format                                   : Matroska
  6. Format version                           : Version 4
  7. File size                                : 18.1 GiB
  8. Duration                                 : 1 h 42 min
  9. Overall bit rate mode                    : Variable
  10. Overall bit rate                         : 25.2 Mb/s
  11. Encoded date                             : UTC 2018-10-02 03:40:54
  12. Writing application                      : mkvmerge v20.0.0 ('I Am The Sun') 64-bit
  13. Writing library                          : libebml v1.3.5 + libmatroska v1.4.8
  14. Video
  15. ID                                       : 1
  16. Format                                   : HEVC
  17. Format/Info                              : High Efficiency Video Coding
  18. Format profile                           : Main 10@L5.1@High
  19. HDR format                               : SMPTE ST 2086, HDR10 compatible
  20. Codec ID                                 : V_MPEGH/ISO/HEVC
  21. Duration                                 : 1 h 42 min
  22. Bit rate                                 : 18.6 Mb/s
  23. Width                                    : 3 840 pixels
  24. Height                                   : 1 600 pixels
  25. Display aspect ratio                     : 2.40:1
  26. Frame rate mode                          : Constant
  27. Frame rate                               : 23.976 (24000/1001/53354) FPS
  28. Color space                              : YUV
  29. Chroma subsampling                       : 4:2:0
  30. Bit depth                                : 10 bits
  31. Bits/(Pixel*Frame)                       : 0.126
  32. Stream size                              : 13.3 GiB (74%)
  33. Writing library                          : x265 2.8+4-g0ad419482+18:[Windows][GCC 7.1.0][64 bit] Yuuki 10bit
  34. Encoding settings                        : rc=crf / crf=18.0000 / qcomp=0.70 / qpstep=4 / vbv-maxrate=160000 / vbv-bufsize=160000 / vbv-init=0.9 / crf-max=0.0 / crf-min=0.0 / aq-mode=3 / aq-strength=0.90 / cbqpoffs=-3 / crqpoffs=-3 / ipratio=1.40 / pbratio=1.30 / psy-rd=2.00 / psy-rdoq=5.00 / deblock=-1:-1 / ref=5 / bframes=9 / b-adapt=2 / bframe-bias=0 / b-pyramid / b-intra / weightp / weightb / min-keyint=23 / max-keyint=300 / rc-lookahead=40 / gop-lookahead=0 / NTMzNTQ=uuDQuD2mJt9fsCf / scenecut=40 / radl=0 / max-cu-size=32 / min-cu-size=8 / me=3 / subme=4 / merange=25 / rdoq-level=2 / rd=4 / rdpenalty=1 / ----- / cutree / no-sao / no-rect / no-amp / no-open-gop / wpp / no-pmode / no-pme / no-psnr / no-ssim / nr-intra=0 / nr-inter=0 / no-constrained-intra / no-strong-intra-smoothing / max-tu-size=32 / tu-inter-depth=2 / tu-intra-depth=2 / limit-tu=4 / qg-size=32 / qpmax=69 / qpmin=0 / ----- / cpuid=533541111039 / frame-threads=5 / numa-pools=84,- / log-level=2 / input-csp=1 / input-res=3840x1600 / interlace=0 / level-idc=0 / high-tier=1 / uhd-bd=0 / no-allow-non-conformance / no-repeat-headers / no-aud / hrd / info / hash=0 / no-temporal-layers / lookahead-slices=4 / no-intra-refresh / dynamic-rd=0.00 / no-ssim-rd / signhide / no-tskip / max-merge=3 / limit-refs=2 / limit-modes / temporal-mvp / no-analyze-src-pics / no-sao-non-deblock / no-early-skip / no-rskip / no-fast-intra / no-tskip-fast / no-cu-lossless / no-splitrd-skip / no-rd-refine / no-lossless / zone-count=0 / no-strict-cbr / no-rc-grain / no-const-vbv / sar=0 / overscan=0 / videoformat=5 / range=0 / colorprim=9 / transfer=16 / colormatrix=9 / chromaloc=0 / display-window=0 / master-display=G(13250,34500)B(7500,3000)R(34000,16000)WP(15635,16450)L(10000000,1) / max-cll=1000,969 / min-luma=0 / max-luma=1023 / log2-max-poc-lsb=8 / vui-timing-info / vui-hrd-info / slices=1 / no-opt-qp-pps / no-opt-ref-list-length-pps / no-multi-pass-opt-rps / scenecut-bias=0.05 / no-opt-cu-delta-qp / no-aq-motion / hdr / hdr-opt / no-dhdr10-opt / no-idr-recovery-sei / analysis-reuse-level=5 / scale-factor=0 / refine-intra=0 / refine-inter=0 / refine-mv=0 / no-limit-sao / ctu-info=0 / no-lowpass-dct / refine-mv-type=0 / copy-pic=1 / max-ausize-factor=1.0 / no-dynamic-refine / no-single-sei
  35. Default                                  : Yes
  36. Forced                                   : No
  37. Color range                              : Limited
  38. Color primaries                          : BT.2020
  39. Transfer characteristics                 : PQ
  40. Matrix coefficients                      : BT.2020 non-constant
  41. Mastering display color primaries        : Display P3
  42. Mastering display luminance              : min: 0.0001 cd/m2, max: 1000 cd/m2
  43. Maximum Content Light Level              : 1000 cd/m2
  44. Maximum Frame-Average Light Level        : 969 cd/m2
  45. Audio #1
  46. ID                                       : 2
  47. Format                                   : MLP FBA 16-ch
  48. Format/Info                              : Meridian Lossless Packing FBA with 16-channel presentation
  49. Commercial name                          : Dolby TrueHD with Dolby Atmos
  50. Codec ID                                 : A_TRUEHD
  51. Duration                                 : 1 h 42 min
  52. Bit rate mode                            : Variable
  53. Bit rate                                 : 5 207 kb/s
  54. Maximum bit rate                         : 8 988 kb/s
  55. Channel(s)                               : 8 channels
  56. Channel layout                           : L R C LFE Ls Rs Lb Rb
  57. Sampling rate                            : 48.0 kHz
  58. Frame rate                               : 1 200.000 FPS (40 SPF)
  59. Compression mode                         : Lossless
  60. Stream size                              : 3.74 GiB (21%)
  61. Title                                    : 英语全景声
  62. Language                                 : English
  63. Default                                  : Yes
  64. Forced                                   : No
  65. Number of dynamic objects                : 15
  66. Bed channel count                        : 1 channel
  67. Bed channel configuration                : LFE
  68. Audio #2
  69. ID                                       : 3
  70. Format                                   : AC-3
  71. Format/Info                              : Audio Coding 3
  72. Commercial name                          : Dolby Digital
  73. Codec ID                                 : A_AC3
  74. Duration                                 : 1 h 42 min
  75. Bit rate mode                            : Constant
  76. Bit rate                                 : 640 kb/s
  77. Channel(s)                               : 6 channels
  78. Channel layout                           : L R C LFE Ls Rs
  79. Sampling rate                            : 48.0 kHz
  80. Frame rate                               : 31.250 FPS (1536 SPF)
  81. Compression mode                         : Lossy
  82. Stream size                              : 470 MiB (3%)
  83. Title                                    : 英语AC-3
  84. Language                                 : English
  85. Service kind                             : Complete Main
  86. Default                                  : No
  87. Forced                                   : No
  88. Audio #3
  89. ID                                       : 4
  90. Format                                   : AC-3
  91. Format/Info                              : Audio Coding 3
  92. Commercial name                          : Dolby Digital
  93. Codec ID                                 : A_AC3
  94. Duration                                 : 1 h 42 min
  95. Bit rate mode                            : Constant
  96. Bit rate                                 : 640 kb/s
  97. Channel(s)                               : 6 channels
  98. Channel layout                           : L R C LFE Ls Rs
  99. Sampling rate                            : 48.0 kHz
  100. Frame rate                               : 31.250 FPS (1536 SPF)
  101. Compression mode                         : Lossy
  102. Delay relative to video                  : 24 ms
  103. Stream size                              : 470 MiB (3%)
  104. Title                                    : 东影上译国语AC-3
  105. Language                                 : Chinese
  106. Service kind                             : Complete Main
  107. Default                                  : No
  108. Forced                                   : No
  109. Text #1
  110. ID                                       : 5
  111. Format                                   : PGS
  112. Muxing mode                              : zlib
  113. Codec ID                                 : S_HDMV/PGS
  114. Codec ID/Info                            : Picture based subtitle format used on BDs/HD-DVDs
  115. Duration                                 : 1 h 34 min
  116. Bit rate                                 : 18.0 kb/s
  117. Count of elements                        : 1989
  118. Stream size                              : 12.2 MiB (0%)
  119. Title                                    : 国配简体中文
  120. Language                                 : Chinese
  121. Default                                  : Yes
  122. Forced                                   : No
  123. Text #2
  124. ID                                       : 6
  125. Format                                   : PGS
  126. Muxing mode                              : zlib
  127. Codec ID                                 : S_HDMV/PGS
  128. Codec ID/Info                            : Picture based subtitle format used on BDs/HD-DVDs
  129. Duration                                 : 1 h 35 min
  130. Bit rate                                 : 74.4 kb/s
  131. Count of elements                        : 4402
  132. Stream size                              : 50.6 MiB (0%)
  133. Title                                    : 国配双语特效
  134. Language                                 : Chinese
  135. Default                                  : No
  136. Forced                                   : No
  137. Text #3
  138. ID                                       : 7
  139. Format                                   : PGS
  140. Muxing mode                              : zlib
  141. Codec ID                                 : S_HDMV/PGS
  142. Codec ID/Info                            : Picture based subtitle format used on BDs/HD-DVDs
  143. Duration                                 : 1 h 34 min
  144. Bit rate                                 : 24.1 kb/s
  145. Count of elements                        : 1888
  146. Stream size                              : 16.4 MiB (0%)
  147. Title                                    : 英文
  148. Language                                 : English
  149. Default                                  : No
  150. Forced                                   : No
  151. Menu
  152. 00:00:00.000                             : en:00:00:00.000
  153. 00:06:41.901                             : en:00:06:41.901
  154. 00:16:03.212                             : en:00:16:03.212
  155. 00:21:24.241                             : en:00:21:24.241
  156. 00:25:32.990                             : en:00:25:32.990
  157. 00:30:41.923                             : en:00:30:41.923
  158. 00:35:34.507                             : en:00:35:34.507
  159. 00:44:06.269                             : en:00:44:06.269
  160. 00:52:03.454                             : en:00:52:03.454
  161. 00:57:41.291                             : en:00:57:41.291
  162. 01:05:13.618                             : en:01:05:13.618
  163. 01:12:28.427                             : en:01:12:28.427
  164. 01:20:21.942                             : en:01:20:21.942
  165. 01:26:36.525                             : en:01:26:36.525
  166. 01:28:33.725                             : en:01:28:33.725
  167. 01:32:45.018                             : en:01:32:45.018
复制代码




TAGS 动作 剧情 惊悚 犯罪 /

磁力链:
  • magnet:?xt=urn:btih:8A595CFA276FBA3E6F12149197F373049F71342B
上传的附件:
BT9527电影天堂 1、BT9527电影天堂提供的BT文件均来源于互联网抓取,只供网友学习交流、技术提升使用。
2、我们遵守BitTorrent点对点协议原则,任何版权问题请联系原资源发布商,我们不处理任何版权纠纷,谢谢!如有争议请联系邮箱:BT9527#hotmail.com(#换成@)
3、如果您发现某页面或地址有错误,请联系站长邮箱BT9527#hotmail.com(#换成@),我们会尽快处理。您的热心是对BT9527电影天堂最大的支持。
4、本站建议去正规影院观看电影以支持电影行业发展。
最新回复 (0)

你可以在 登录 or 注册 后,对此帖发表评论!

返回
发新帖