野兽派特工[简繁英字幕].beast.2022.1080p.Netflix.WEB-DL.H264.DDP5.1-HDBWEB 4.13GB

版主小s 1月前 263



◎译  名 野兽派特工 / thalapathy 65
◎片  名 beast
◎年  代 2022
◎产  地 印度
◎类  别 动作 / 惊悚 / 犯罪
◎语  言 泰米尔语
◎上映日期 2022-04-13(印度)
◎IMDb链接 https://www.imdb.com/title/tt11301946/
◎豆瓣链接 https://movie.douban.com/subject/35859185/
◎片  长 155分钟
◎演  员 维杰 Vijay (id:1315650)
       普嘉·海婅 Pooja Hegde (id:1358884)
       约吉·巴布 Yogi Babu (id:1377634)

◎简  介
  金奈某个购物中心发生了一起持枪抢劫案,劫匪绑架商场内几百人当人质,惊动了政府,官员不得不介入其中,与劫匪举步维艰地谈判。而一名刚从国外执行完任务的特工竟误打误撞成了劫匪的“人质”之一,且看这位刀口舔血、特立独行的政府特工,如何把犯罪团伙折磨到痛哭流涕,悔不当初……

  1. ##### MediaInfo ######
  2. General
  3. Unique ID                                : 248480615687104176793858374095364465629 (0xBAEFA036BB9C4A658EE6B537715CA3DD)
  4. Complete name                            : 野兽派特工.beast.2022.1080p.Netflix.WEB-DL.H264.DDP5.1-HDBWEB.mkv
  5. Format                                   : Matroska
  6. Format version                           : Version 4
  7. File size                                : 4.13 GiB
  8. Duration                                 : 2 h 36 min
  9. Overall bit rate mode                    : Variable
  10. Overall bit rate                         : 3 774 kb/s
  11. Movie name                               : 狂勇救援手
  12. Description                              : 一樁購物商場的攻擊事件導致人質危機,歷盡滄桑的前情報探員因而被召回展開行動。
  13. Writing application                      : Lavf58.76.100
  14. Writing library                          : Lavf58.76.100
  15. ErrorDetectionType                       : Per level 1
  16. DATE                                     : 2022
  17. Video
  18. ID                                       : 1
  19. Format                                   : AVC
  20. Format/Info                              : Advanced Video Codec
  21. Format profile                           : High@L4
  22. Format settings                          : CABAC / 4 Ref Frames
  23. Format settings, CABAC                   : Yes
  24. Format settings, Reference frames        : 4 frames
  25. Codec ID                                 : V_MPEG4/ISO/AVC
  26. Duration                                 : 2 h 36 min
  27. Bit rate mode                            : Variable
  28. Bit rate                                 : 2 931 kb/s
  29. Maximum bit rate                         : 20.0 Mb/s
  30. Width                                    : 1 920 pixels
  31. Height                                   : 1 080 pixels
  32. Display aspect ratio                     : 16:9
  33. Frame rate mode                          : Constant
  34. Frame rate                               : 24.000 FPS
  35. Color space                              : YUV
  36. Chroma subsampling                       : 4:2:0
  37. Bit depth                                : 8 bits
  38. Scan type                                : Progressive
  39. Bits/(Pixel*Frame)                       : 0.059
  40. Stream size                              : 3.21 GiB (78%)
  41. Title                                    : 264:fmt=264:moovts=-1:fps=24:deps:par=auto@GPAC2.1-DEV-rev6151-gb558f0b55-HEAD
  42. Writing library                          : x264 core 148 r2727 7d026e8
  43. Encoding settings                        : cabac=1 / ref=4 / deblock=1:0:0 / analyse=0x3:0x111 / me=umh / subme=10 / psy=1 / psy_rd=1.00:0.00 / mixed_ref=1 / me_range=120 / chroma_me=1 / trellis=2 / 8x8dct=1 / cqm=0 / deadzone=21,11 / fast_pskip=1 / chroma_qp_offset=-2 / threads=6 / lookahead_threads=1 / sliced_threads=0 / nr=0 / decimate=1 / interlaced=0 / NTMzNTQ= / bluray_compat=0 / stitchable=1 / constrained_intra=0 / bframes=16 / b_pyramid=2 / b_adapt=2 / b_bias=0 / direct=3 / weightb=1 / open_gop=0 / weightp=2 / keyint=240 / keyint_min=121 / scenecut=0 / intra_refresh=0 / rc_lookahead=240 / rc=crf / mbtree=1 / crf=23.0 / qcomp=0.50 / qpmin=6 / qpmax=51 / qpstep=4 / vbv_maxrate=20000 / vbv_bufsize=25000 / crf_max=0.0 / nal_hrd=vbr / filler=0 / NTMzNTQ=LmsMAP37EqsCpk / ip_ratio=1.40 / aq=1:0.80
  44. Default                                  : Yes
  45. Forced                                   : No
  46. VENDOR_ID                                : [0][0][0][0]
  47. Audio #1
  48. ID                                       : 2
  49. Format                                   : E-AC-3
  50. Format/Info                              : Enhanced AC-3
  51. Commercial name                          : Dolby Digital Plus
  52. Codec ID                                 : A_EAC3
  53. Duration                                 : 2 h 36 min
  54. Bit rate mode                            : Constant
  55. Bit rate                                 : 640 kb/s
  56. Channel(s)                               : 6 channels
  57. Channel layout                           : L R C LFE Ls Rs
  58. Sampling rate                            : 48.0 kHz
  59. Frame rate                               : 31.250 FPS (1536 SPF)
  60. Bit depth                                : 32 bits
  61. Compression mode                         : Lossy
  62. Stream size                              : 717 MiB (17%)
  63. Title                                    : 坦米爾文 [原始]
  64. Language                                 : Tamil
  65. Service kind                             : Complete Main
  66. Default                                  : Yes
  67. Forced                                   : No
  68. VENDOR_ID                                : [0][0][0][0]
  69. Audio #2
  70. ID                                       : 3
  71. Format                                   : E-AC-3
  72. Format/Info                              : Enhanced AC-3
  73. Commercial name                          : Dolby Digital Plus
  74. Codec ID                                 : A_EAC3
  75. Duration                                 : 2 h 36 min
  76. Bit rate mode                            : Constant
  77. Bit rate                                 : 128 kb/s
  78. Channel(s)                               : 2 channels
  79. Channel layout                           : L R
  80. Sampling rate                            : 48.0 kHz
  81. Frame rate                               : 31.250 FPS (1536 SPF)
  82. Bit depth                                : 32 bits
  83. Compression mode                         : Lossy
  84. Stream size                              : 143 MiB (3%)
  85. Title                                    : 坦米爾文 [原始]
  86. Language                                 : Tamil
  87. Service kind                             : Complete Main
  88. Default                                  : No
  89. Forced                                   : No
  90. VENDOR_ID                                : [0][0][0][0]
  91. Text #1
  92. ID                                       : 4
  93. Format                                   : UTF-8
  94. Codec ID                                 : S_TEXT/UTF8
  95. Codec ID/Info                            : UTF-8 Plain Text
  96. Duration                                 : 2 h 31 min
  97. Title                                    : 英文
  98. Writing library                          : Lavc58.134.100 srt
  99. Language                                 : English
  100. Default                                  : Yes
  101. Forced                                   : No
  102. Text #2
  103. ID                                       : 5
  104. Format                                   : UTF-8
  105. Codec ID                                 : S_TEXT/UTF8
  106. Codec ID/Info                            : UTF-8 Plain Text
  107. Duration                                 : 2 h 36 min
  108. Title                                    : 印地文
  109. Writing library                          : Lavc58.134.100 srt
  110. Language                                 : Hindi
  111. Default                                  : No
  112. Forced                                   : No
  113. Text #3
  114. ID                                       : 6
  115. Format                                   : UTF-8
  116. Codec ID                                 : S_TEXT/UTF8
  117. Codec ID/Info                            : UTF-8 Plain Text
  118. Duration                                 : 2 h 36 min
  119. Title                                    : 簡體中文
  120. Writing library                          : Lavc58.134.100 srt
  121. Language                                 : Chinese
  122. Default                                  : No
  123. Forced                                   : No
  124. Text #4
  125. ID                                       : 7
  126. Format                                   : UTF-8
  127. Codec ID                                 : S_TEXT/UTF8
  128. Codec ID/Info                            : UTF-8 Plain Text
  129. Duration                                 : 2 h 36 min
  130. Title                                    : 繁體中文
  131. Writing library                          : Lavc58.134.100 srt
  132. Language                                 : Chinese
  133. Default                                  : No
  134. Forced                                   : No
复制代码




TAGS 动作 惊悚 犯罪 /

磁力链:
  • magnet:?xt=urn:btih:1A3B5D5E74209D1D7192EC8ABA5ED637879DDB8E
上传的附件:
BT9527电影天堂 1、BT9527电影天堂提供的BT文件均来源于互联网抓取,只供网友学习交流、技术提升使用。
2、我们遵守BitTorrent点对点协议原则,任何版权问题请联系原资源发布商,我们不处理任何版权纠纷,谢谢!如有争议请联系邮箱:BT9527#hotmail.com(#换成@)
3、如果您发现某页面或地址有错误,请联系站长邮箱BT9527#hotmail.com(#换成@),我们会尽快处理。您的热心是对BT9527电影天堂最大的支持。
4、本站建议去正规影院观看电影以支持电影行业发展。
最新回复 (0)

你可以在 登录 or 注册 后,对此帖发表评论!

返回