玩尽杀绝[杜比视界版本][国英多音轨/简繁英字幕].Wild.Things.1998.Unrated.2160p.UHD.BluRay.2160p.x265.10bit.DoVi-MiniHD 21.32GB

版主小s 1月前 372



◎译  名 玩尽杀绝 / 野东西
◎片  名 Wild Things
◎年  代 1998
◎产  地 美国
◎类  别 悬疑 / 惊悚 / 犯罪
◎语  言 英语
◎上映日期 1998-03-20
◎IMDb链接 https://www.imdb.com/title/tt0120890/
◎豆瓣评分 7.0/10 (14173人评价)
◎豆瓣链接 https://movie.douban.com/subject/1292552/
◎片  长 108 分钟
◎导  演 约翰·麦克诺顿 John McNaughton (id:1014234)
◎演  员 凯文·贝肯 Kevin Bacon (id:1009260)
       马特·狄龙 Matt Dillon (id:1004583)
       内芙·坎贝尔 Neve Campbell (id:1027828)
       泰莉莎·拉塞尔 Theresa Russell (id:1032016)
       丹妮丝·理查兹 Denise Richards (id:1004601)
       达芬妮·鲁宾-维佳 Daphne Rubin-Vega (id:1147513)
       罗伯特·瓦格纳 Robert Wagner (id:1055695)
       比尔·默瑞 Bill Murray (id:1054508)
       卡丽·斯诺格丽丝 Carrie Snodgress (id:1150688)
       杰夫·帕里 Jeff Perry (id:1022869)
       科里·彭德格斯特 Cory Pendergast (id:1131756)
       马克·麦考利 Marc Macaulay (id:1116920)
       Steven A. Jones Steven A. Jones (id:1287898)
       Elena Maganini Elena Maganini (id:1290713)
       Linda Lowy Linda Lowy (id:1276223)
       William Hiney William Hiney (id:1286663)
       Ty Arnold Ty Arnold (id:1277439)
       阿蒂·马莱西 Artie Malesci (id:1290797)

◎简  介
  这是一局环环紧扣的阴谋游戏。小镇上的中学教师萨姆(马特?狄龙 Matt Dillon 饰)这天为学生作完性主题的犯罪演讲后,女学生凯莉就溜进了他的房间,面对青春迷人的凯莉(丹妮丝?理查兹 Denise Richards 饰),萨姆惊得目瞪口呆。这一幕被凯莉的母亲桑德拉(泰莉莎?拉塞尔 Theresa Russell 饰)撞见了,她此前曾和萨姆有过风流的一夜。醋意大发的桑德拉以学校捐助人的身份要求校长将萨姆解职,萨姆因此糊里糊涂丢掉了工作。屋漏偏逢连夜雨,小镇上的一名女学生苏茜(内芙?坎贝尔 Neve Campbell 饰)突然控告萨姆强奸了自己,桑德拉出资聘请了有名的大律师状告萨姆。身无分文的萨姆请不起律师,虽然有贪财的保险人博登在庭上帮他辩护,但面对对方的资深律师,法庭的形势对萨姆十分不利。然而此时,事态有了新的转折!

  1. ##### MediaInfo ######
  2. General
  3. Unique ID                                : 2929488690367486691509433425061158266 (0x23432F19A15582EE2187C58D7271D7A)
  4. Complete name                            : Wild.Things.1998.Unrated.2160p.UHD.BluRay.2160p.x265.10bit.DoVi-MiniHD.mkv
  5. Format                                   : Matroska
  6. Format version                           : Version 4
  7. File size                                : 21.3 GiB
  8. Duration                                 : 1 h 54 min
  9. Overall bit rate mode                    : Variable
  10. Overall bit rate                         : 26.6 Mb/s
  11. Encoded date                             : UTC 2022-05-25 13:51:56
  12. Writing application                      : mkvmerge v66.0.0 ('Josie') 64-bit
  13. Writing library                          : libebml v1.4.2 + libmatroska v1.6.4
  14. Video
  15. ID                                       : 1
  16. Format                                   : HEVC
  17. Format/Info                              : High Efficiency Video Coding
  18. Format profile                           : Main 10@L5.1@High
  19. HDR format                               : SMPTE ST 2086, HDR10 compatible
  20. Codec ID                                 : V_MPEGH/ISO/HEVC
  21. Duration                                 : 1 h 54 min
  22. Bit rate                                 : 22.3 Mb/s
  23. Width                                    : 3 840 pixels
  24. Height                                   : 1 608 pixels
  25. Display aspect ratio                     : 2.40:1
  26. Frame rate mode                          : Constant
  27. Frame rate                               : 23.976 (24000/1001/53354) FPS
  28. Color space                              : YUV
  29. Chroma subsampling                       : 4:2:0
  30. Bit depth                                : 10 bits
  31. Bits/(Pixel*Frame)                       : 0.151
  32. Stream size                              : 17.9 GiB (84%)
  33. Writing library                          : x265 3.3+3-g8f8e332f1+29:[Windows][#Erg`Djh#][@Yuuki] made by @Dongfangbubai
  34. Encoding settings                        : rc=crf / crf=18.0000 / qcomp=0.70 / qpstep=4 / stats-write=0 / stats-read=0 / vbv-maxrate=160000 / vbv-bufsize=160000 / vbv-init=0.9 / crf-max=0.0 / crf-min=0.0 / no-lossless / no-cu-lossless / aq-mode=3 / aq-strength=0.80 / cbqpoffs=-3 / crqpoffs=-3 / ipratio=1.40 / pbratio=1.30 / psy-rd=2.00 / psy-rdoq=3.00 / deblock=-1:-1 / ref=5 / limit-refs=0 / no-limit-modes / bframes=8 / b-adapt=2 / bframe-bias=0 / b-pyramid / b-intra / weightp / weightb / min-keyint=23 / max-keyint=240 / rc-lookahead=60 / gop-lookahead=0 / NTMzNTQ=uuDQuD2mJt9fsCf / scenecut=40 / hist-scenecut=0 / radl=0 / max-cu-size=32 / min-cu-size=8 / me=3 / subme=4 / merange=25 / rdoq-level=2 / rd=4 / rdpenalty=1 / dynamic-rd=0.00 / no-rd-refine / ----- / no-cutree / no-sao / rect / no-amp / no-open-gop / wpp / pmode / pme / no-psnr / no-ssim / nr-intra=0 / nr-inter=0 / no-constrained-intra / no-strong-intra-smoothing / max-tu-size=32 / tu-inter-depth=2 / tu-intra-depth=2 / limit-tu=0 / qg-size=32 / qpmax=69 / qpmin=0 / ----- / cpuid=533541176575 / frame-threads=6 / numa-pools=54,- / log-level=2 / input-csp=1 / input-res=3840x1608 / interlace=0 / level-idc=0 / high-tier=1 / uhd-bd=0 / no-allow-non-conformance / repeat-headers / aud / hrd / info / hash=0 / no-temporal-layers / lookahead-slices=0 / no-splice / no-intra-refresh / no-ssim-rd / signhide / no-tskip / max-merge=3 / temporal-mvp / no-frame-dup / no-hme / no-analyze-src-pics / no-sao-non-deblock / selective-sao=0 / no-early-skip / no-rskip / no-fast-intra / no-tskip-fast / no-splitrd-skip / zone-count=0 / no-strict-cbr / no-rc-grain / no-const-vbv / sar=0 / overscan=0 / videoformat=5 / range=0 / colorprim=9 / transfer=16 / colormatrix=9 / chromaloc=0 / display-window=0 / master-display=G(13250,34500)B(7500,3000)R(34000,16000)WP(15635,16450)L(20000000,1) / cll=1995,458 / min-luma=0 / max-luma=1023 / log2-max-poc-lsb=8 / vui-timing-info / vui-hrd-info / slices=1 / no-opt-qp-pps / no-opt-ref-list-length-pps / no-multi-pass-opt-rps / scenecut-bias=0.05 / hist-threshold=0.01 / no-opt-cu-delta-qp / no-aq-motion / hdr10 / hdr10-opt / no-dhdr10-opt / no-idr-recovery-sei / analysis-reuse-level=0 / analysis-save-reuse-level=0 / analysis-load-reuse-level=0 / scale-factor=0 / refine-intra=0 / refine-inter=0 / refine-mv=1 / refine-ctu-distortion=0 / no-limit-sao / ctu-info=0 / no-lowpass-dct / refine-analysis-type=0 / copy-pic=1 / max-ausize-factor=1.0 / no-dynamic-refine / no-single-sei / no-hevc-aq / no-svt / no-field / qp-adaptation-range=1.00 / no-scenecut-aware-qpconformance-window-offsets / right=0 / bottom=0 / NTMzNTQ=
  35. Default                                  : Yes
  36. Forced                                   : No
  37. Color range                              : Limited
  38. Color primaries                          : BT.2020
  39. Transfer characteristics                 : PQ
  40. Matrix coefficients                      : BT.2020 non-constant
  41. Mastering display color primaries        : Display P3
  42. Mastering display luminance              : min: 0.0001 cd/m2, max: 2000 cd/m2
  43. Maximum Content Light Level              : 1995 cd/m2
  44. Maximum Frame-Average Light Level        : 458 cd/m2
  45. Audio #1
  46. ID                                       : 2
  47. Format                                   : DTS XLL
  48. Format/Info                              : Digital Theater Systems
  49. Commercial name                          : DTS-HD Master Audio
  50. Codec ID                                 : A_DTS
  51. Duration                                 : 1 h 54 min
  52. Bit rate mode                            : Variable
  53. Bit rate                                 : 4 020 kb/s
  54. Channel(s)                               : 6 channels
  55. Channel layout                           : C L R Ls Rs LFE
  56. Sampling rate                            : 48.0 kHz
  57. Frame rate                               : 93.750 FPS (512 SPF)
  58. Bit depth                                : 24 bits
  59. Compression mode                         : Lossless
  60. Stream size                              : 3.22 GiB (15%)
  61. Title                                    : 英语
  62. Language                                 : English
  63. Default                                  : Yes
  64. Forced                                   : No
  65. Audio #2
  66. ID                                       : 3
  67. Format                                   : AC-3
  68. Format/Info                              : Audio Coding 3
  69. Commercial name                          : Dolby Digital
  70. Codec ID                                 : A_AC3
  71. Duration                                 : 1 h 54 min
  72. Bit rate mode                            : Constant
  73. Bit rate                                 : 192 kb/s
  74. Channel(s)                               : 2 channels
  75. Channel layout                           : L R
  76. Sampling rate                            : 48.0 kHz
  77. Frame rate                               : 31.250 FPS (1536 SPF)
  78. Compression mode                         : Lossy
  79. Delay relative to video                  : 1 s 0 ms
  80. Stream size                              : 158 MiB (1%)
  81. Title                                    : 国语
  82. Language                                 : Chinese
  83. Service kind                             : Complete Main
  84. Default                                  : No
  85. Forced                                   : No
  86. Text #1
  87. ID                                       : 4
  88. Format                                   : PGS
  89. Muxing mode                              : zlib
  90. Codec ID                                 : S_HDMV/PGS
  91. Codec ID/Info                            : Picture based subtitle format used on BDs/HD-DVDs
  92. Duration                                 : 1 h 47 min
  93. Bit rate                                 : 18.8 kb/s
  94. Count of elements                        : 1852
  95. Stream size                              : 14.4 MiB (0%)
  96. Title                                    : R3简中
  97. Language                                 : Chinese
  98. Default                                  : Yes
  99. Forced                                   : No
  100. Text #2
  101. ID                                       : 5
  102. Format                                   : PGS
  103. Muxing mode                              : zlib
  104. Codec ID                                 : S_HDMV/PGS
  105. Codec ID/Info                            : Picture based subtitle format used on BDs/HD-DVDs
  106. Duration                                 : 1 h 47 min
  107. Bit rate                                 : 19.1 kb/s
  108. Count of elements                        : 1852
  109. Stream size                              : 14.6 MiB (0%)
  110. Title                                    : R3繁中
  111. Language                                 : Chinese
  112. Default                                  : No
  113. Forced                                   : No
  114. Text #3
  115. ID                                       : 6
  116. Format                                   : PGS
  117. Muxing mode                              : zlib
  118. Codec ID                                 : S_HDMV/PGS
  119. Codec ID/Info                            : Picture based subtitle format used on BDs/HD-DVDs
  120. Duration                                 : 1 h 47 min
  121. Bit rate                                 : 26.0 kb/s
  122. Count of elements                        : 2288
  123. Stream size                              : 19.9 MiB (0%)
  124. Title                                    : 英文
  125. Language                                 : English
  126. Default                                  : No
  127. Forced                                   : No
  128. Menu
  129. 00:00:00.000                             : :Chapter 01
  130. 00:09:50.089                             : :Chapter 02
  131. 00:17:08.945                             : :Chapter 03
  132. 00:24:19.458                             : :Chapter 04
  133. 00:33:55.784                             : :Chapter 05
  134. 00:45:15.171                             : :Chapter 06
  135. 00:55:05.802                             : :Chapter 07
  136. 01:01:41.114                             : :Chapter 08
  137. 01:08:44.662                             : :Chapter 09
  138. 01:17:26.600                             : :Chapter 10
  139. 01:25:50.103                             : :Chapter 11
  140. 01:34:04.472                             : :Chapter 12
  141. 01:43:14.897                             : :Chapter 13
复制代码




TAGS 惊悚 悬疑 犯罪 /

磁力链:
  • magnet:?xt=urn:btih:DDC19AA13C2990C757F74492C75536AB5C0BFF4A
上传的附件:
BT9527电影天堂 1、BT9527电影天堂提供的BT文件均来源于互联网抓取,只供网友学习交流、技术提升使用。
2、我们遵守BitTorrent点对点协议原则,任何版权问题请联系原资源发布商,我们不处理任何版权纠纷,谢谢!如有争议请联系邮箱:BT9527#hotmail.com(#换成@)
3、如果您发现某页面或地址有错误,请联系站长邮箱BT9527#hotmail.com(#换成@),我们会尽快处理。您的热心是对BT9527电影天堂最大的支持。
4、本站建议去正规影院观看电影以支持电影行业发展。
最新回复 (0)

你可以在 登录 or 注册 后,对此帖发表评论!

返回
发新帖